img image001 image001 image001 image001 image001 image001 image001 image001 image001 image001 image001 image001 image001 image001 image001 image001
Planets Sun Sun Sun
Статистика раздачи
Автор: mari | Размер: 7.48 ГБ | Добавлен: 09 мар 2018
Раздают: 49    Качают: 11
Скачать торрент
Скачать торрент

СообщениеДобавлено: 09 мар 2018 

Высокие ставки (2 сезон 1-8 серии из 24) Реванш

Перевод: Не требуется, cубтитры: отсутствуют
Формат: WEBRip 720p, MKV, H.264, AC3
Страна: Россия
Режиссер: Максим Бриус
Жанр: драма, криминал
Всего серий: 24
Продолжительность: 8 х ~ 00:45:00
Год выпуска: 2018

В ролях: Алексей Нилов, Максим Дахненко, Лукерья Ильяшенко, Владимир Литвинов, Валерий Филонов, Аграфена Петровская, Алексей Парасевич, Сергей Волков (III), Ксения Белобородова, Алексей Шевченков, Владимир Чернышов, Юрий Елагин, Кристина Дасарская, Виталий Крылов, Дмитрий Караневский, Дарья Зарецкая, Антон Чернов, Элис Дарс, Константин Клюквин, Николай Иванов (VII)

Описание: Действие второго сезона происходит спустя несколько лет после завершения событий, о которых рассказано в первой части картины. Юрий Сергеев по прозвищу «Космонавт» продолжает управлять своим казино в отсутствие друга и главного помощника Капитана, который скоро должен выйти на свободу из заключения. Между тем, дела Космонавта идут всё хуже. Казино с каждым днём приносит меньше прибыли, старые клиенты один за другим переходят на более безопасный и удобный способ получать удовольствие от азартных игр – они становятся пользователями онлайн-казино. Самым популярным из них является казино «Russian Glory», открытое молодой амбициозной предпринимательницей Глорией Филиппенковой, хорошо разбирающейся в современных технологиях. Неожиданно Глория делает Космонавту предложение о совместном ведении бизнеса и нагло вторгается на территорию старого бандита.

Рейтинг и доп. информация:


Видео: 1280х720 (16:9), 25 fps, AVC MPEG-4 (x264), ~ 2500 kbps avg, 0.109 bit/pixel
Аудио: 48 kHz, AC3, 2/0 (L,R) ch, ~256.00 kbps avg
Внимание! Раздача ведётся путём добавления новых серий. При каждом добавлении создаётся новый торрент.
Чтобы начать докачку новой серии, пользователям необходимо сделать следующее:
1. Остановить скачивание.
2. Удалить старый торрент у себя из клиента (старые серии удалять не надо).
3. Скачать новый торрент и запустить его у себя в клиенте вместо старого, при этом указать клиенту путь в старую папку куда и должно происходить скачивание новых серий. Ваш клиент при этом должен произвести хеширование (проверку) старой папки и будет докачивать только те серии, которых у вас ещё нет. Старые серии при этом не удаляются, а продолжают раздаваться! Eсли вы уже удалили старые серии, то предотвратить повторную закачку старых серий можно, отжав галочку в соответствующих местах при запуске нового торрента.


Общее
Уникальный идентификатор : 225806611636399836758145574207071730342 (0xA9E0C580F750D806909CE36608903AA6)
Полное имя : C:\Высокие Ставки. Реванш\Высокие_Ставки_Реванш_01.mkv
Формат : Matroska
Версия формата : Version 4 / Version 2
Размер файла : 949 Мбайт
Продолжительность : 48 м. 4 с.
Режим общего битрейта : Постоянный
Общий поток : 2759 Кбит/сек
Программа кодирования : Lavf57.71.100
Библиотека кодирования : Lavf57.71.100
ErrorDetectionType : Per level 1
BUFFER_AVERAGE : 271337
DEVICECONFORMANCETEMPLATE : MP@HL
FSCSETTINGS : 35
ISVBR : 1
VBR_PEAK : 20597075
WMFSDKNEEDED : 0.0.0.0000
WMFSDKVERSION : 12.0.16299.248

Видео
Идентификатор : 1
Формат : AVC
Формат/Информация : Advanced Video Codec
Профиль формата :
Настройки формата : CABAC / 1 Ref Frames
Параметр CABAC формата : Да
Параметр RefFrames формата : 1 кадр
Параметр GOP формата : M=1, N=25
Идентификатор кодека : V_MPEG4/ISO/AVC
Продолжительность : 48 м. 4 с.
Вид битрейта : Постоянный
Битрейт : 2500 Кбит/сек
Ширина : 1280 пикселей
Высота : 720 пикселей
Соотношение сторон : 16:9
Режим частоты кадров : Постоянный
Частота кадров : 25,000 кадров/сек
Цветовое пространство : YUV
Субдискретизация насыщенности : 4:2:0
Битовая глубина : 8 бит
Тип развёртки : Прогрессивная
Бит/(Пиксели*Кадры) : 0.109
Размер потока : 842 Мбайт (89%)
Язык : English
Default : Да
Forced : Нет

Аудио
Идентификатор : 2
Формат : AC-3
Формат/Информация : Audio Coding 3
Идентификатор кодека : A_AC3
Продолжительность : 48 м. 4 с.
Вид битрейта : Постоянный
Битрейт : 256 Кбит/сек
Каналы : 2 канала
Расположение каналов : Front: L R
Частота : 48,0 КГц
Частота кадров : 31,250 кадров/сек (1536 SPF)
Битовая глубина : 16 бит
Метод сжатия : С потерями
Размер потока : 88,0 Мбайт (9%)
Язык : English
ServiceKind/String : Complete Main
Default : Да
Forced : Нет










   Похожие торренты   Торрент   Размер 
В этой теме нет новых непрочитанных сообщений. Высокие ставки (2 сезон 1-16 серии из 16) Реванш (Максим Бриус) [2018, драма, криминал, WEBRip 720p]

45 | 17

15.09 ГБ

В этой теме нет новых непрочитанных сообщений. Высокие ставки (2 сезон 1-16 серии из 16) Реванш (Максим Бриус) [2018, драма, криминал, WEBRip]

133 | 18

9.41 ГБ

В этой теме нет новых непрочитанных сообщений. Высокие ставки (2 сезон 1-4 серии из 16) Реванш (Максим Бриус) [2018, драма, криминал, WEBRip-AVC]

0 | 0

2.99 ГБ

В этой теме нет новых непрочитанных сообщений. Высокие ставки (2 сезон 1-14 серии из 16) Реванш (Максим Бриус) [2018, драма, криминал, WEBRip-AVC]

6 | 2

10.47 ГБ

В этой теме нет новых непрочитанных сообщений. Высокие ставки (2 сезон 1-16 серии из 16) Реванш (Максим Бриус) [2018, драма, криминал, WEBRip-AVC]

103 | 30

12.02 ГБ

В этой теме нет новых непрочитанных сообщений. Высокие ставки (2 сезон 1-12 серии из 16) Реванш (Максим Бриус) [2018, драма, криминал, WEBRip-AVC]

10 | 5

8.97 ГБ

В этой теме нет новых непрочитанных сообщений. Высокие ставки (2 сезон 1-8 серии из 24) Реванш (Максим Бриус) [2018, драма, криминал, WEBRip]

170 | 70

4.7 ГБ




Вы не можете начинать темы
Вы не можете отвечать на сообщения
Вы не можете редактировать свои сообщения
Вы не можете удалять свои сообщения
Вы не можете добавлять вложения

Перейти:  
Для Мосгорсуда, Роскомнадзора и рекламодателей: mosgorsud-torrent[собачка]yandex.ru
 Вход
ppkBB3cker v.2 © 2008-2014 @ PPK
[ Time : 0.030s | 18 Queries | GZIP : Off ]

Торрент трекер RS-torrent.com
cron