img image001 image001 image001 image001 image001 image001 image001 image001 image001 image001 image001 image001 image001 image001 image001 image001
Planets Sun Sun Sun
Статистика раздачи
Автор: mari | Размер: 8.22 ГБ | Добавлен: 09 мар 2018
Раздают: 6    Качают: 0
Скачать торрент
Скачать торрент

СообщениеДобавлено: 09 мар 2018 

За три дня до любви / За три дні до кохання (1-12 серии из 16)

Перевод: Не требуется
Субтитры: отсутствуют
Формат: WEB-DL 720p, MKV, H.264, AC3
Страна: Украина
Режиссер: Сергей Щербин
Жанр: мелодрама
Всего серий: 16
Продолжительность: 12 х ~ 00:59:00
Год выпуска: 2018

В ролях: Анастасия Карпенко, Антон Денисенко, Дарья Егоркина, Александр Кобзарь, Елизавета Курбанмагомедова, Вячеслав Довженко, Андрей Мостренко, Тамара Морозова, Александр Гетманский, Дайнис Грубе, Александр Ганноченко, Лариса Руснак, Алла Масленникова, Евгений Лебедин, Станислав Бжезинский, Алексей Череватенко, Владислав Онищенко, Мария Заныборщ, Анатоль Фон-Филандра, Наталия Цыганенко, Арсен Босенко, Артём Мяус, Екатерина Шенфельд, Ева Шевченко-Головко, Анжелика Ешбаева, Ирина Султанова, Елена Провотарь, Яна Ключник, Михаил Румянцев (III), Михаил Романов (II), Михаил Мерзликин (II), Юрий Правилов, Никита Власенко, Мария Ерёменко, Андрей Новиченко, Вячеслав Бабенков (II), Андрей Евсеенко, Сергей Лихтей, Лев Клименко, Елена Шнипко, Александр Бондарь, Михаил Щегельский, Евгения Нечипоренко, Руслан Никоненко, Александр Комендантов, Роман Скобников, Марта Миленькая, Сергей Литвин, Вячеслав Белозоров, Павел Шевчук, Александр Зарубей, Сергей Дарий, Александр Агеенков, Юрий Билык, Татьяна Минцева, Игорь Титов (III)

Описание: Это чувственная мелодрама о сильной женщине Дане, которая добилась в жизни всего, что ей было нужно, но счастья от этого не прибавилось. Однажды, ее судьба пересекается с бизнесменом, жизнь которого оказалась под ударом, он погряз в долгах и не знает и в шаге от банкротства. Дана, предлагает ему сделку: она – оплачивает его злосчастные долги, он – дарит ей три дня своей жизни. К чему приведет этот договор, и какие тайны всплывут их жизни?



Видео: 1280x720p (16:9), 25,000 fps, MPEG4 AVC (x264), ~1762 Kbps avg, 0.076 bit/pixel
Аудио: Русский 48 kHz, AC3, 2 ch ~ 192 Kbps


Общее
Уникальный идентификатор : 171053073391397936465825318983715691969 (0x80AF9FA50FDE8B48BC0DF11E7D669DC1)
Полное имя : F:\TREKER\ТЕМР\za_tri_dnya_do_lybvi_[tfile.me]\za_tri_dnya_do_lybvi_[tfile.me]_e01.mkv
Формат : Matroska
Версия формата : Version 2
Размер файла : 707 Мбайт
Продолжительность : 49 м. 36 с.
Общий поток : 1993 Кбит/сек
Название фильма : za_tri_dnya_do_lybvi_[tfile.me]
Дата кодирования : UTC 2018-03-08 16:20:19
Программа кодирования : mkvmerge v4.0.0 ('The Stars were mine') сборка от Jun 6 2010 16:18:42
Библиотека кодирования : libebml v1.0.0 + libmatroska v1.0.0
Обложка : Yes
Attachments : cover.jpg

Видео
Идентификатор : 1
Формат : AVC
Формат/Информация : Advanced Video Codec
Профиль формата :
Параметр CABAC формата : Да
Параметр ReFrames формата : 3 кадра
Идентификатор кодека : V_MPEG4/ISO/AVC
Продолжительность : 49 м. 36 с.
Битрейт : 1762 Кбит/сек
Ширина : 1280 пикселей
Высота : 720 пикселей
Соотношение сторон : 16:9
Режим частоты кадров : Постоянный
Частота кадров : 25,000 кадров/сек
Цветовое пространство : YUV
Субдискретизация насыщенности : 4:2:0
Битовая глубина : 8 бит
Тип развёртки : Прогрессивная
Бит/(Пиксели*Кадры) : 0.076
Размер потока : 625 Мбайт (88%)
Default : Нет
Forced : Нет

Аудио
Идентификатор : 2
Формат : AC-3
Формат/Информация : Audio Coding 3
Расширение режима : CM (complete main)
Параметр Endianness формата : Big
Идентификатор кодека : A_AC3
Продолжительность : 49 м. 36 с.
Вид битрейта : Постоянный
Битрейт : 192 Кбит/сек
Каналы : 2 канала
Расположение каналов : Front: L R
Частота : 48,0 КГц
Частота кадров : 31,250 кадров/сек (1536 spf)
Битовая глубина : 16 бит
Метод сжатия : С потерями
Размер потока : 68,1 Мбайт (10%)
Default : Нет
Forced : Нет







Внимание! Раздача ведётся путём добавления новых серий; при каждом добавлении создётся новый торрент. Чтобы начать докачку новой серии, пользователям необходимо сделать следующее:
(1) остановить скачивание,
(2) удалить старый торрент у себя из клиента (старые серии удалять не надо),
(3) скачать новый торрент и запустить его у себя в клиенте вместо старого, при этом указать клиенту путь в старую папку куда и должно происходить скачивание новых серий.

Ваш клиент при этом должен произвести хеширование (проверку) старой папки (если не производит сам - помогите ему сделать это), и будет докачивать только те серии которых у вас ещё нет. Старые серии при этом не удаляются, а продолжают раздаваться!

Eсли вы уже удалили старые серии, то предотвратить повторную закачку старых серий можно, отжав галочку в соответсвующих местах при запуске нового торрента. По возможности, желательно не удалять старые серии как можно дольше чтобы релизёр не столько продолжал раздавать старые серии, а смог сконцентрироваться на новых.



Релиз от:

Релиз предоставлен сайтом tfile.me!!



   Похожие торренты   Торрент   Размер 
В этой теме нет новых непрочитанных сообщений. За три дня до любви (1-16 серии из 16) (Сергей Щербин) [2018, мелодрама, WEB-DL 720p]

3 | 0

10.91 ГБ

В этой теме нет новых непрочитанных сообщений. За три дня до любви (1-11 серии из 16) (Сергей Щербин) [2018, мелодрама, WEB-DLRip]

22 | 34

6.45 ГБ

В этой теме нет новых непрочитанных сообщений. За три дня до любви (1-14 серии из 16) (Сергей Щербин) [2018, мелодрама, WEB-DLRip]

3 | 0

8.2 ГБ

В этой теме нет новых непрочитанных сообщений. За три дня до любви (1-16 серии из 16) (Сергей Щербин) [2018, мелодрама, WEB-DLRip]

94 | 12

9.38 ГБ

В этой теме нет новых непрочитанных сообщений. За три дня до любви (1-8 серии из 16) (Сергей Щербин) [2018, мелодрама, WEB-DLRip]

11 | 7

4.69 ГБ

В этой теме нет новых непрочитанных сообщений. За три дня до любви (1-3 серии из 16) (Сергей Щербин) [2018, мелодрама, WEB-DLRip-AVC]

5 | 2

1.83 ГБ

В этой теме нет новых непрочитанных сообщений. За три дня до любви (1-9 серии из 16) (Сергей Щербин) [2018, мелодрама, WEB-DLRip-AVC]

4 | 0

5.53 ГБ




Вы не можете начинать темы
Вы не можете отвечать на сообщения
Вы не можете редактировать свои сообщения
Вы не можете удалять свои сообщения
Вы не можете добавлять вложения

Перейти:  
Для Мосгорсуда, Роскомнадзора и рекламодателей: mosgorsud-torrent[собачка]yandex.ru
 Вход
ppkBB3cker v.2 © 2008-2014 @ PPK
[ Time : 2.098s | 17 Queries | GZIP : Off ]

Торрент трекер RS-torrent.com
cron