img image001 image001 image001 image001 image001 image001 image001 image001 image001 image001 image001 image001 image001 image001 image001 image001
Planets Sun Sun Sun
Статистика раздачи
Автор: mari | Размер: 3.04 ГБ | Добавлен: 09 мар 2018
Раздают: 10    Качают: 2
Скачать торрент
Скачать торрент

СообщениеДобавлено: 09 мар 2018 

Линия огня (1-4 серии из 8)

Перевод: Не требуется, cубтитры: отсутствуют
Формат: HDTVRip-AVC, MKV, H.264, AC3
Страна: Россия
Режиссер: Александр Калугин
Жанр: драма, криминал
Всего серий: 8
Продолжительность: 4 x ~ 00:48:00
Год выпуска: 2018

В ролях: Алексей Барабаш, Ирина Вальц, Анастасия Матвеева, Сергей Цепов, Руслан Ягудин, Сергей Загребнев, Михаил Стенин (II), Александр Фисенко, Виктория Герасимова, Яна Крайнова, Игорь Лагутин, Илья Соколовский, Сергей Погосян, Виктория Богатырёва

Описание: Начальник караула пожарной части Токарев, в прошлом следователь, неофициально расследует халатность с закупкой дыхательных аппаратов, из-за которой стал инвалидом его коллега. Следы ведут к его бывшему другу – бизнесмену Колосову, компания которого поставляет оборудование по всей стране. Но Колосова убивают, обвинив в убийстве его жену. Перед своей смертью Колосов, пользуясь связями, устроил своего приёмного сына Дениса в расчёт к Токареву, зная, что бывший друг не бросит в беде Дениса даже несмотря на их натянутые отношения. У Дениса юношеский максимализм, он хочет добиться всего в жизни сам, а ещё избавиться от панического страха перед огнём. Теперь Токареву и Денису предстоит разобраться в загадочной смерти Колосова и вскрыть преступную схему торговли некондиционным оборудованием, а заодно бок о бок спасать человеческие жизни на пожарах и разбираться в отношениях с любимыми.

Рейтинг и доп. информация:


Видео: 1024x576 (16:9), 25 fps, AVC MPEG-4 (x264), ~ 2000 kbps , 0.136 bit/pixel
Аудио: 48 kHz, AC3, 2/0 (L,R) ch, ~192 kbps
Внимание! Раздача ведётся путём добавления новых серий. При каждом добавлении создаётся новый торрент.
Чтобы начать докачку новой серии, пользователям необходимо сделать следующее:
1. Остановить скачивание.
2. Удалить старый торрент у себя из клиента (старые серии удалять не надо).
3. Скачать новый торрент и запустить его у себя в клиенте вместо старого, при этом указать клиенту путь в старую папку куда и должно происходить скачивание новых серий. Ваш клиент при этом должен произвести хеширование (проверку) старой папки и будет докачивать только те серии, которых у вас ещё нет. Старые серии при этом не удаляются, а продолжают раздаваться! Eсли вы уже удалили старые серии, то предотвратить повторную закачку старых серий можно, отжав галочку в соответствующих местах при запуске нового торрента.


Общее
Уникальный идентификатор : 192841749336964503614464452149692588382 (0x9113F84F244BB7718718286ADFCFE15E)
Полное имя : C:\Linija.ognia.(2017).HDTVRip.(AVC).\01.Linija.ognia.(2017).HDTVRip.(AVC).mkv
Формат : Matroska
Версия формата : Version 2
Размер файла : 764 Мбайт
Продолжительность : 48 м. 41 с.
Общий поток : 2194 Кбит/сек
Дата кодирования : UTC 2018-03-08 20:03:52
Программа кодирования : mkvmerge v7.8.0 ('River Man') 32bit built on Apr 3 2015 12:11:22
Библиотека кодирования : libebml v1.3.1 + libmatroska v1.4.2

Видео
Идентификатор : 1
Формат : AVC
Формат/Информация : Advanced Video Codec
Профиль формата :
Настройки формата : CABAC / 9 Ref Frames
Параметр CABAC формата : Да
Параметр RefFrames формата : 9 кадров
Идентификатор кодека : V_MPEG4/ISO/AVC
Продолжительность : 48 м. 41 с.
Битрейт : 2000 Кбит/сек
Ширина : 1024 пикселя
Высота : 576 пикселей
Соотношение сторон : 16:9
Режим частоты кадров : Постоянный
Частота кадров : 25,000 кадров/сек
Цветовое пространство : YUV
Субдискретизация насыщенности : 4:2:0
Битовая глубина : 8 бит
Тип развёртки : Прогрессивная
Бит/(Пиксели*Кадры) : 0.136
Размер потока : 682 Мбайт (89%)
Библиотека кодирования : x264 core 146 r2538 121396c
Настройки программы : cabac=1 / ref=9 / deblock=1:-2:-1 / analyse=0x3:0x133 / me=umh / subme=9 / psy=1 / psy_rd=1.00:0.15 / mixed_ref=1 / me_range=32 / chroma_me=1 / trellis=2 / 8x8dct=1 / cqm=0 / deadzone=21,11 / fast_pskip=0 / chroma_qp_offset=-3 / threads=18 / lookahead_threads=3 / sliced_threads=0 / nr=0 / decimate=1 / interlaced=0 / bluray_compat=0 / constrained_intra=0 / bframes=9 / b_pyramid=2 / b_adapt=2 / b_bias=0 / direct=1 / weightb=1 / open_gop=0 / weightp=2 / keyint=250 / keyint_min=25 / scenecut=40 / intra_refresh=0 / rc=2pass / mbtree=0 / bitrate=2000 / ratetol=1.0 / qcomp=0.60 / qpmin=0 / qpmax=69 / qpstep=4 / cplxblur=20.0 / qblur=0.5 / ip_ratio=1.40 / pb_ratio=1.30 / aq=2:1.00
Default : Да
Forced : Нет
Цветовой диапазон : Limited
Основные цвета : BT.709
Характеристики трансфера : BT.709
Коэффициенты матрицы : BT.709

Аудио
Идентификатор : 2
Формат : AC-3
Формат/Информация : Audio Coding 3
Идентификатор кодека : A_AC3
Продолжительность : 48 м. 41 с.
Вид битрейта : Постоянный
Битрейт : 192 Кбит/сек
Каналы : 2 канала
Расположение каналов : Front: L R
Частота : 48,0 КГц
Частота кадров : 31,250 кадров/сек (1536 SPF)
Битовая глубина : 16 бит
Метод сжатия : С потерями
Размер потока : 66,9 Мбайт (9%)
ServiceKind/String : Complete Main
Default : Да
Forced : Нет








   Похожие торренты   Торрент   Размер 
В этой теме нет новых непрочитанных сообщений. Линия огня (1-4 серии из 8) (Александр Калугин) [2018, драма, криминал, HDTVRip]

36 | 4

2.34 ГБ

В этой теме нет новых непрочитанных сообщений. Линия огня (1-8 серии из 8) (Александр Калугин) [2017, драма, криминал, HDTVRip-AVC]

22 | 0

6.08 ГБ

В этой теме нет новых непрочитанных сообщений. Линия огня (1-4 серии из 8) (Александр Калугин) [2017, драма, криминал, WEBRip 1080p]

1 | 1

4.17 ГБ

В этой теме нет новых непрочитанных сообщений. Линия огня (1-8 серии из 8) (Александр Калугин) [2017, драма, криминал, WEBRip 720p]

9 | 0

13.05 ГБ

В этой теме нет новых непрочитанных сообщений. Линия огня (1-8 серии из 8) (Александр Калугин) [2017, драма, криминал, WEBRip 1080p]

12 | 3

17.21 ГБ

В этой теме нет новых непрочитанных сообщений. Линия огня (1-4 серия из 8) (Александр Калугин ) [2017, драма, криминал, SATRip]

6 | 0

2.63 ГБ

В этой теме нет новых непрочитанных сообщений. Не женское дело (1-8 серии из 8) (Александр Калугин) [2013, драма, криминал, мелодрама, WEB-DLRip]

62 | 10

5.23 ГБ




Вы не можете начинать темы
Вы не можете отвечать на сообщения
Вы не можете редактировать свои сообщения
Вы не можете удалять свои сообщения
Вы не можете добавлять вложения

Перейти:  
Для Мосгорсуда, Роскомнадзора и рекламодателей: mosgorsud-torrent[собачка]yandex.ru
 Вход
ppkBB3cker v.2 © 2008-2014 @ PPK
[ Time : 0.036s | 16 Queries | GZIP : Off ]

Торрент трекер RS-torrent.com
cron