img image001 image001 image001 image001 image001 image001 image001 image001 image001 image001 image001 image001 image001 image001 image001 image001
Planets Sun Sun Sun
Статистика раздачи
Автор: mari | Размер: 39.94 ГБ | Добавлен: 05 дек 2018
Раздают: 4    Качают: 8
Скачать торрент
Скачать торрент

СообщениеДобавлено: 05 дек 2018 

Доктор Рихтер (2 сезон 1-16 серии из 16) Продолжение

Перевод: Не требуется, cубтитры: отсутствуют
Формат: HDTVRip 1080p, MKV, H.264, AC3
Страна: Россия
Режиссер: Максим Демченко, Андрей Прошкин
Жанр: детектив, драма
Всего серий: 16
Продолжительность: 16 x ~ 00:51:00
Год выпуска: 2018

В ролях: Алексей Серебряков, Анна Михалкова, Полина Чернышова, Павел Чинарёв, Дмитрий Ендальцев, Виталий Хаев, Мария Миронова (II), Олег Васильков, Михаил Пореченков, Мария Смольникова, Филипп Гуревич, Полина Ватага, Андрей Кузичёв, Евгения Бурдихина, Фаррух Гафуров, Рамиля Искандер, Полина Агуреева, Алексей Розин, Михаил Парыгин, Юрий Сазонов, Александр Лырчиков, Дмитрий Мухамадеев, Анна Глазкова, Денис Ткачёв, Константин Саушкин, Дмитрий Подадаев, Андрей Фомин, Ива Солоницына, Юлия Акимова, Евгений Муравич, Янина Студилина, Константин Константинов (II), Юрий Тарасов, Андрей Шишков (II), Юлия Ауг, Анна Шевчук, Ксения Алексеева (III), Сергей Юшкевич, Сергей Угрюмов, Юлия Кудояр, Сергей Никоненко, Роман Мадянов, Светлана Немоляева, Дмитрий Певцов, Эммануил Виторган

Описание: Адаптация американского сериала "Доктор Хаус / House, M.D". В продолжении популярного сериала доктор Андрей Александрович Рихтер и сотрудники возглавляемого им отделения клинической диагностики вновь разгадывают, казалось бы, неразрешимые медицинские загадки и спасают человеческие жизни. Рихтер – настоящий профессионал и даже гений своего дела. Его интересуют только самые сложные, запутанные случаи, рутинная же работа в больничной поликлинике навевает скуку и раздражает. Правильные диагнозы ему позволяет ставить не только глубокое знание медицины, но также понимание человеческой психологии, своеобразная дедукция и врачебная интуиция. Его история – это спор науки с человеческими слабостями, разума – с самой природой.

Рейтинг и доп. информация:


Видео: 1920x1080 (16:9), 25 fps, AVC MPEG-TS (x264), ~ 7050 kbps , 0.136 bit/pixel
Аудио: 48 kHz, AC3, 2/0 (L,R) ch, ~192.00 kbps avg
General
Unique ID : 176218087389814346056314147789133921849 (0x84925E7EF44D97AC8DDD1CBDAA6D3E39)
Complete name : E:Запись с твDoktor Rixter S02.2018.HDTV 1080p.RG GeneralFilmDoktor Rixter.s02.e03.2018.HDTV 1080p.by.White Smoke.R.G.Generalfilm.mkv
Format : Matroska
Format version : Version 4 / Version 2
File size : 2.56 GiB
Duration : 50 min
Overall bit rate mode : Constant
Overall bit rate : 7 220 kb/s
Movie name : Doktor Rixter.s02.e03.2018.HDTV 1080p.by.White Smoke.R.G.Generalfilm.mkv
Encoded date : UTC 2018-11-21 19:57:03
Writing application : mkvmerge v6.8.0 ('Theme for Great Cities') 64bit built on Mar 2 2014 21:34:26
Writing library : libebml v1.3.0 + libmatroska v1.4.1
Cover : Yes
Attachments : cover.jpg

Video
ID : 1
Format : AVC
Format/Info : Advanced Video Codec
Format profile :
Format settings, CABAC : Yes
Format settings, ReFrames : 3 frames
Codec ID : V_MPEG4/ISO/AVC
Duration : 50 min
Bit rate mode : Constant
Bit rate : 7 051 kb/s
Width : 1 920 pixels
Height : 1 080 pixels
Display aspect ratio : 16:9
Frame rate mode : Constant
Frame rate : 25.000 FPS
Standard : PAL
Color space : YUV
Chroma subsampling : 4:2:0
Bit depth : 8 bits
Scan type : Progressive
Bits/(Pixel*Frame) : 0.136
Stream size : 2.44 GiB (95%)
Default : Yes
Forced : No
Color range : Limited
Color primaries : BT.709
Transfer characteristics : BT.709
Matrix coefficients : BT.709

Audio
ID : 2
Format : AC-3
Format/Info : Audio Coding 3
Mode extension : CM (complete main)
Format settings, Endianness : Big
Codec ID : A_AC3
Duration : 50 min
Bit rate mode : Constant
Bit rate : 192 kb/s
Channel(s) : 2 channels
Channel positions : Front: L R
Sampling rate : 48.0 kHz
Frame rate : 31.250 FPS (1536 spf)
Compression mode : Lossy
Stream size : 69.8 MiB (3%)
Default : Yes
Forced : No














   Похожие торренты   Торрент   Размер 
В этой теме нет новых непрочитанных сообщений. Доктор Рихтер (2 сезон 1-6 серии из 16) Продолжение (Максим Демченко, Андрей Прошкин) [2018, детектив, драма, HDTVRip 1080p]

1 | 1

15.54 ГБ

В этой теме нет новых непрочитанных сообщений. Доктор Рихтер (2 сезон 1-14 серии из 16) Продолжение (Максим Демченко, Андрей Прошкин) [2018, детектив, драма, HDTVRip-AVC]

0 | 0

10.96 ГБ

В этой теме нет новых непрочитанных сообщений. Доктор Рихтер (2 сезон 1-12 серии из 16) Продолжение (Максим Демченко, Андрей Прошкин) [2018, детектив, драма, HDTVRip-AVC]

9 | 8

9.38 ГБ

В этой теме нет новых непрочитанных сообщений. Доктор Рихтер (2 сезон 1-6 серии из 16) Продолжение (Максим Демченко, Андрей Прошкин) [2018, детектив, драма, HDTVRip]

9 | 1

3.65 ГБ

В этой теме нет новых непрочитанных сообщений. Доктор Рихтер (2 сезон 1-16 серии из 16) Продолжение (Максим Демченко, Андрей Прошкин) [2018, детектив, драма, HDTVRip]

109 | 77

9.72 ГБ

В этой теме нет новых непрочитанных сообщений. Доктор Рихтер (2 сезон 1-14 серии из 16) Продолжение (Максим Демченко, Андрей Прошкин) [2018, детектив, драма, HDTVRip]

0 | 0

8.5 ГБ

В этой теме нет новых непрочитанных сообщений. Доктор Рихтер (2 сезон 1-8 серии из 16) Продолжение (Максим Демченко, Андрей Прошкин) [2018, детектив, драма, HDTVRip]

0 | 0

4.86 ГБ




Вы не можете начинать темы
Вы не можете отвечать на сообщения
Вы не можете редактировать свои сообщения
Вы не можете удалять свои сообщения
Вы не можете добавлять вложения

Перейти:  
Для Мосгорсуда, Роскомнадзора и рекламодателей: mosgorsud-torrent[собачка]yandex.ru
cron
 Вход
ppkBB3cker v.2 © 2008-2014 @ PPK
[ Time : 0.036s | 16 Queries | GZIP : Off ]

Торрент трекер RS-torrent.com
cron