img image001 image001 image001 image001 image001 image001 image001 image001 image001 image001 image001 image001 image001 image001 image001 image001
Planets Sun Sun Sun
Статистика раздачи
Автор: mari | Размер: 6.17 ГБ | Добавлен: 06 дек 2018
Раздают: 0    Качают: 0
Скачать торрент
Скачать торрент

СообщениеДобавлено: 06 дек 2018 

Год культуры (1-6 серии из 20)

Перевод: Не требуется, cубтитры: отсутствуют
Формат: WEBRip 1080p, MKV, H.264, AC3
Страна: Россия
Режиссер: Элина Терняева
Жанр: комедия
Всего серий: 20
Продолжительность: 1 х ~ 00:50:00, 5 х ~ 00:25:00
Год выпуска: 2018

В ролях: Фёдор Бондарчук, Мария Ахметзянова, Александр Лыков, Александр Яценко, Риналь Мухаметов, Ольга Медынич, Валерия Шкирандо, Александр Обласов, Мария Карпова, Александр Ильин, Иван Мартынов (II), Игорь Угольников, Виктория Верберг, Виктория Корлякова, Андрей Полищук, Веста Буркот, Григорий Верник, Альбина Евтушевская, Арсений Асташкин, Дмитрий Богдан, Анна Глаубэ

Описание: Нерадивый чиновник Виктор Михайлович Сычев отправляется в ссылку на кафедру словесности в региональный вуз. Там ему придется сменить уютное кожаное кресло и просторный кабинет на шаткую табуретку и пыльную аудиторию. Что может быть лучше для служителя Министерства образования, чем полное погружение в это самое образование? Сериал «Год культуры» на ТНТ покажет, чем может обернуться для высокопоставленного чиновника халатное отношение к собственным обязанностям.

Рейтинг и доп. информация:


Видео: 1920x1080 (16:9), 25 fps, AVC MPEG4 (x264), Baseline@L4 ~ 5000 kbps , 0.105 bit/pixel
Аудио: 48 kHz, AC3, 2/0 (L,R) ch, ~192.00 kbps avg
Внимание! Раздача ведётся путём добавления новых серий. При каждом добавлении создаётся новый торрент.
Чтобы начать докачку новой серии, пользователям необходимо сделать следующее:
1. Остановить скачивание.
2. Удалить старый торрент у себя из клиента (старые серии удалять не надо).
3. Скачать новый торрент и запустить его у себя в клиенте вместо старого, при этом указать клиенту путь в старую папку куда и должно происходить скачивание новых серий. Ваш клиент при этом должен произвести хеширование (проверку) старой папки и будет докачивать только те серии, которых у вас ещё нет. Старые серии при этом не удаляются, а продолжают раздаваться! Eсли вы уже удалили старые серии, то предотвратить повторную закачку старых серий можно, отжав галочку в соответствующих местах при запуске нового торрента.


Общее
Уникальный идентификатор : 238707543015788183799433454094157427481 (0xB395668776DBDF7E9FA0A3BE3E2D3319)
Полное имя : C:\God.kulturi.2018.WEB-DL.(1080p).Getty\God.kulturi.e02.2018.WEB-DL.(1080p).Getty.mkv
Формат : Matroska
Версия формата : Version 4
Размер файла : 915 Мбайт
Продолжительность : 24 м. 42 с.
Режим общего битрейта : Постоянный
Общий поток : 5178 Кбит/сек
Название фильма : God.kulturi.e02.2018.WEB-DL.(1080p).Getty
Дата кодирования : UTC 2018-11-21 21:00:13
Программа кодирования : mkvmerge v7.8.0 ('River Man') 32bit built on Mar 27 2015 16:18:02
Библиотека кодирования : libebml v1.3.1 + libmatroska v1.4.2

Видео
Идентификатор : 1
Формат : AVC
Формат/Информация : Advanced Video Codec
Профиль формата : Baseline@L4
Настройки формата : 4 Ref Frames
Параметр CABAC формата : Нет
Параметр RefFrames формата : 4 кадра
Идентификатор кодека : V_MPEG4/ISO/AVC
Продолжительность : 24 м. 42 с.
Вид битрейта : Постоянный
Битрейт : 5000 Кбит/сек
Ширина : 1920 пикселей
Высота : 1080 пикселей
Соотношение сторон : 16:9
Режим частоты кадров : Постоянный
Частота кадров : 25,000 кадров/сек
Стандарт вещания : PAL
Цветовое пространство : YUV
Субдискретизация насыщенности : 4:2:0
Битовая глубина : 8 бит
Тип развёртки : Прогрессивная
Бит/(Пиксели*Кадры) : 0.096
Размер потока : 880 Мбайт (96%)
Default : Да
Forced : Нет
Цветовой диапазон : Limited
Основные цвета : BT.709
Характеристики трансфера : BT.709
Коэффициенты матрицы : BT.709

Аудио
Идентификатор : 2
Формат : AC-3
Формат/Информация : Audio Coding 3
Коммерческое название : Dolby Digital
Идентификатор кодека : A_AC3
Продолжительность : 24 м. 42 с.
Вид битрейта : Постоянный
Битрейт : 192 Кбит/сек
Каналы : 2 канала
Channel layout : L R
Частота : 48,0 КГц
Частота кадров : 31,250 кадров/сек (1536 SPF)
Битовая глубина : 16 бит
Метод сжатия : С потерями
Размер потока : 33,9 Мбайт (4%)
ServiceKind/String : Complete Main
Default : Да
Forced : Нет








   Похожие торренты   Торрент   Размер 
В этой теме нет новых непрочитанных сообщений. Год культуры (1-4 серии из 20) (Элина Терняева) [2018, комедия, WEBRip]

0 | 0

1.54 ГБ

В этой теме нет новых непрочитанных сообщений. Год культуры (1-2 серии из 20) (Элина Терняева) [2018, комедия, WEBRip-AVC]

51 | 5

885.77 МБ

В этой теме нет новых непрочитанных сообщений. Год культуры (1-2 серии из 20) (Элина Терняева) [2018, комедия, WEBRip]

0 | 0

915.12 МБ

В этой теме нет новых непрочитанных сообщений. Год культуры (1-6 серии из 20) (Элина Терняева) [2018, комедия, WEBRip]

0 | 0

2.21 ГБ

В этой теме нет новых непрочитанных сообщений. Год культуры (1-6 серии из 20) (Элина Терняева) [2018, комедия, WEBRip-AVC]

0 | 0

2.14 ГБ

В этой теме нет новых непрочитанных сообщений. Год культуры (1-4 серии из 20) (Элина Терняева) [2018, комедия, WEBRip-AVC]

155 | 78

1.49 ГБ

В этой теме нет новых непрочитанных сообщений. Год культуры (1-6 серии из 20) (Элина Терняева) [2018, комедия, WEBRip 720p]

0 | 0

3.32 ГБ




Вы не можете начинать темы
Вы не можете отвечать на сообщения
Вы не можете редактировать свои сообщения
Вы не можете удалять свои сообщения
Вы не можете добавлять вложения

Перейти:  
Для Мосгорсуда, Роскомнадзора и рекламодателей: mosgorsud-torrent[собачка]yandex.ru
 Вход
ppkBB3cker v.2 © 2008-2014 @ PPK
[ Time : 0.034s | 16 Queries | GZIP : Off ]

Торрент трекер RS-torrent.com
cron