img image001 image001 image001 image001 image001 image001 image001 image001 image001 image001 image001 image001 image001 image001 image001 image001
Planets Sun Sun Sun
Статистика раздачи
Автор: mari | Размер: 9.9 ГБ | Добавлен: 13 мар 2019
Раздают: 0    Качают: 0
Скачать торрент
Скачать торрент

СообщениеДобавлено: 13 мар 2019 

Реализация (1-4 серии из 24)

Перевод: Не требуется, cубтитры: отсутствуют
Формат: HDTV 1080p, MKV, H.264, AC3
Страна: Россия
Режиссер: Виктор Шкуратов
Жанр: детектив
Всего серий: 24
Продолжительность: 4 x ~ 00:48:00
Год выпуска: 2018

В ролях: Дмитрий Паламарчук, Эдуард Флёров, Кирилл Рубцов, Сергей Юшкевич, Михаил Тарабукин, Максим Дахненко, Алексей Красноцветов, Ирина Ларионова, Игорь Ключников, Сергей Жарков, Елена Вожакина, Андрей Терентьев, Роман Агеев, Кирилл Полухин, Сергей Уманов, Вячеслав Аркунов, Алексей Штукин, Наталия Вязовская, Степан Пивкин, Виталий Салий, Юлия Кудояр, Игорь Грабузов, Антон Сычёв, Кирилл Кузнецов, Антон Чернов, Артём Цыпин, Владимир Петров (VIII), Станислав Ткаченко, Александр Клемантович, Олег Метелев, Юрий Ковалёв, Ирина Горкунова, Вячеслав Гумеров, Татьяна Ермилова (II), Дмитрий Могучев, Александр Петров (V), Михаил Сидаш, Геша Меньшиков, Александр Кратиров, Александр Колесник, Кира Кауфман, Егор Бакулин, Леонид Ворон, Никита Серков, Сергей Евдокимов, Анна Лутцева, Сергей Колос, Владислав Резник

Описание: Опытного розыскника из Великого Новгорода с необычной фамилией Красавец после конфликта с влиятельным бизнесменом переводят на должность простого участкового в Центральный район Петербурга. Все, чего он теперь хочет – тихо и мирно дослужить до пенсии. Но едва ли не каждый день на новом месте Красавец оказывается в эпицентре преступных событий: то его втягивают в разборки между криминальным авторитетом и коллегами из УМВД, то он занимается поисками похищенного начальника главка, то ему приходится охотиться на неуловимого киллера…

Рейтинг и доп. информация:


Видео: 1920х1080, (16:9), 25 fps, AVC MPEG-4 (x264), ~ 7050 kbps , 0.133 bit/pixel
Аудио: 48 kHz, АС3, 2/0 (L,R), ~192.00 kbps avg
Внимание! Раздача ведётся путём добавления новых серий. При каждом добавлении создаётся новый торрент.
Чтобы начать докачку новой серии, пользователям необходимо сделать следующее:
1. Остановить скачивание.
2. Удалить старый торрент у себя из клиента (старые серии удалять не надо).
3. Скачать новый торрент и запустить его у себя в клиенте вместо старого, при этом указать клиенту путь в старую папку куда и должно происходить скачивание новых серий. Ваш клиент при этом должен произвести хеширование (проверку) старой папки и будет докачивать только те серии, которых у вас ещё нет. Старые серии при этом не удаляются, а продолжают раздаваться! Eсли вы уже удалили старые серии, то предотвратить повторную закачку старых серий можно, отжав галочку в соответствующих местах при запуске нового торрента.


General
Unique ID : 211872605316474699522503241136614019998 (0x9F652DF38B3768F08F6C16C3AB06139E)
Complete name : E:Запись с твRealizaciya 2019 HDTV 1080p.R.G.GeneralfilmRealizaciya.s01.e02.2019.HDTV 1080p.by.White Smoke.R.G.Generalfilm.mkv
Format : Matroska
Format version : Version 4 / Version 2
File size : 2.42 GiB
Duration : 47 min 59 s
Overall bit rate mode : Variable
Overall bit rate : 7 232 kb/s
Movie name : Realizaciya.s01.e02.2019.HDTV 1080p.by.White Smoke.R.G.Generalfilm.mkv
Encoded date : UTC 2019-03-12 12:32:41
Writing application : mkvmerge v6.8.0 (''Theme for Great Cities'') 64bit built on Mar 2 2014 21:34:26
Writing library : libebml v1.3.0 + libmatroska v1.4.1
Cover : Yes
Attachments : cover.jpg

Video
ID : 1
Format : AVC
Format/Info : Advanced Video Codec
Format profile :
Format settings : CABAC / 3 Ref Frames
Format settings, CABAC : Yes
Format settings, ReFrames : 3 frames
Format settings, GOP : M=3, N=33
Codec ID : V_MPEG4/ISO/AVC
Duration : 47 min 59 s
Bit rate mode : Variable
Bit rate : 6 896 kb/s
Maximum bit rate : 7 050 kb/s
Width : 1 920 pixels
Height : 1 080 pixels
Display aspect ratio : 16:9
Frame rate mode : Constant
Frame rate : 25.000 FPS
Standard : PAL
Color space : YUV
Chroma subsampling : 4:2:0
Bit depth : 8 bits
Scan type : Progressive
Bits/(Pixel*Frame) : 0.133
Stream size : 2.31 GiB (95%)
Default : No
Forced : No
Color range : Limited
Color primaries : BT.709
Transfer characteristics : BT.709
Matrix coefficients : BT.709

Audio
ID : 2
Format : AC-3
Format/Info : Audio Coding 3
Commercial name : Dolby Digital
Codec ID : A_AC3
Duration : 47 min 59 s
Bit rate mode : Constant
Bit rate : 192 kb/s
Channel(s) : 2 channels
Channel layout : L R
Sampling rate : 48.0 kHz
Frame rate : 31.250 FPS (1536 SPF)
Bit depth : 16 bits
Compression mode : Lossy
Stream size : 65.9 MiB (3%)
Service kind : Complete Main
Default : Yes
Forced : No









Запись с



   Похожие торренты   Торрент   Размер 
В этой теме нет новых непрочитанных сообщений. Реализация (1-24 серии из 24) (Виктор Шкуратов) [2018, детектив, HDTV 1080p]

0 | 0

57.36 ГБ

В этой теме нет новых непрочитанных сообщений. Реализация (1-20 серии из 24) (Виктор Шкуратов) [2018, детектив, HDTV 1080p]

1 | 2

47.52 ГБ

В этой теме нет новых непрочитанных сообщений. Реализация (1-18 серии из 24) (Виктор Шкуратов) [2018, детектив, HDTV 1080p]

5 | 6

42.53 ГБ

В этой теме нет новых непрочитанных сообщений. Реализация (1-12 серии из 24) (Виктор Шкуратов) [2018, детектив, HDTV 1080p]

0 | 0

27.74 ГБ

В этой теме нет новых непрочитанных сообщений. Реализация (1-16 серии из 24) (Виктор Шкуратов) [2018, детектив, HDTV 1080p]

17 | 23

37.62 ГБ

В этой теме нет новых непрочитанных сообщений. Реализация (1-14 серии из 24) (Виктор Шкуратов) [2018, детектив, HDTV 1080p]

10 | 17

32.61 ГБ

В этой теме нет новых непрочитанных сообщений. Реализация (1-10 серии из 24) (Виктор Шкуратов) [2018, детектив, HDTV 1080p]

0 | 0

22.7 ГБ




Вы не можете начинать темы
Вы не можете отвечать на сообщения
Вы не можете редактировать свои сообщения
Вы не можете удалять свои сообщения
Вы не можете добавлять вложения

Перейти:  
Для Мосгорсуда, Роскомнадзора и рекламодателей: mosgorsud-torrent[собачка]yandex.ru
Регистрация  Вход
ppkBB3cker v.2 © 2008-2014 @ PPK
[ Time : 0.028s | 15 Queries | GZIP : Off ]

cron