img image001 image001 image001 image001 image001 image001 image001 image001 image001 image001 image001 image001 image001 image001 image001 image001
Planets Sun Sun Sun
Статистика раздачи
Автор: mari | Размер: 4.53 ГБ | Добавлен: 13 мар 2019
Раздают: 0    Качают: 0
Скачать торрент
Скачать торрент

СообщениеДобавлено: 13 мар 2019 

Реализация (1-6 серии из 24)

Перевод: Не требуется, cубтитры: отсутствуют
Формат: WEBRip-AVC, MKV, H.264, AC3
Страна: Россия
Режиссер: Виктор Шкуратов
Жанр: детектив
Всего серий: 24
Продолжительность: 6 ~ 00:50:00
Год выпуска: 2018

В ролях: Дмитрий Паламарчук, Эдуард Флёров, Кирилл Рубцов, Сергей Юшкевич, Михаил Тарабукин, Максим Дахненко, Алексей Красноцветов, Ирина Ларионова, Игорь Ключников, Сергей Жарков, Елена Вожакина, Андрей Терентьев, Роман Агеев, Кирилл Полухин, Сергей Уманов, Вячеслав Аркунов, Алексей Штукин, Наталия Вязовская, Степан Пивкин, Виталий Салий, Юлия Кудояр, Игорь Грабузов, Антон Сычёв, Кирилл Кузнецов, Антон Чернов, Артём Цыпин, Владимир Петров (VIII), Станислав Ткаченко, Александр Клемантович, Олег Метелев, Юрий Ковалёв, Ирина Горкунова, Вячеслав Гумеров, Татьяна Ермилова (II), Дмитрий Могучев, Александр Петров (V), Михаил Сидаш, Геша Меньшиков, Александр Кратиров, Александр Колесник, Кира Кауфман, Егор Бакулин, Леонид Ворон, Никита Серков, Сергей Евдокимов, Анна Лутцева, Сергей Колос, Владислав Резник

Описание: Опытный розыскник из Великого Новгорода Андрей Красавец, после конфликта с криминальным бизнесменом, переведен на должность простого участкового в Центральный район Петербурга. Все, что хочет теперь Красавéц – это тихо и мирно прослужить три года, чтобы выйти на заслуженную пенсию. Но неожиданно он оказывается в центре разборки между авторитетом Дмитрием Яшиным и собственными коллегами из УМВД по Центральному району, что приводит к непредсказуемым последствиям…

Рейтинг и доп. информация:


Видео: 1024x576, (16:9), 25 fps, AVC MPEG-4 (x264), ~ 2000 kbps , 0.136 bit/pixel
Аудио: 48 kHz, АС3, 2/0 (L,R), ~192.00 kbps avg
Внимание! Раздача ведётся путём добавления новых серий. При каждом добавлении создаётся новый торрент.
Чтобы начать докачку новой серии, пользователям необходимо сделать следующее:
1. Остановить скачивание.
2. Удалить старый торрент у себя из клиента (старые серии удалять не надо).
3. Скачать новый торрент и запустить его у себя в клиенте вместо старого, при этом указать клиенту путь в старую папку куда и должно происходить скачивание новых серий. Ваш клиент при этом должен произвести хеширование (проверку) старой папки и будет докачивать только те серии, которых у вас ещё нет. Старые серии при этом не удаляются, а продолжают раздаваться! Eсли вы уже удалили старые серии, то предотвратить повторную закачку старых серий можно, отжав галочку в соответствующих местах при запуске нового торрента.


Общее
Уникальный идентификатор : 228881612690520166829745390949645421445 (0xAC30FEC2CECD4DE588251DB556FC0B85)
Полное имя : C:\Realizatsiyai.(2018).WEBRip.(AVC).Files-x\01.Realizatsiya.(2018).WEBRip.(AVC).by.Серый1779.Files-x.mkv
Формат : Matroska
Версия формата : Version 2
Размер файла : 779 Мбайт
Продолжительность : 49 м. 42 с.
Общий поток : 2193 Кбит/сек
Дата кодирования : UTC 2019-03-11 19:37:06
Программа кодирования : mkvmerge v7.8.0 (''River Man'') 32bit built on Apr 3 2015 12:11:22
Библиотека кодирования : libebml v1.3.1 + libmatroska v1.4.2

Видео
Идентификатор : 1
Формат : AVC
Формат/Информация : Advanced Video Codec
Профиль формата :
Настройки формата : CABAC / 9 Ref Frames
Параметр CABAC формата : Да
Параметр RefFrames формата : 9 кадров
Идентификатор кодека : V_MPEG4/ISO/AVC
Продолжительность : 49 м. 42 с.
Битрейт : 2000 Кбит/сек
Ширина : 1024 пикселя
Высота : 576 пикселей
Соотношение сторон : 16:9
Режим частоты кадров : Постоянный
Частота кадров : 25,000 кадров/сек
Цветовое пространство : YUV
Субдискретизация насыщенности : 4:2:0
Битовая глубина : 8 бит
Тип развёртки : Прогрессивная
Бит/(Пиксели*Кадры) : 0.136
Размер потока : 696 Мбайт (89%)
Библиотека кодирования : x264 core 146 r2538 121396c
Настройки программы : cabac=1 / ref=9 / deblock=1:-2:-1 / analyse=0x3:0x133 / me=umh / subme=9 / psy=1 / psy_rd=1.00:0.15 / mixed_ref=1 / me_range=32 / chroma_me=1 / trellis=2 / 8x8dct=1 / cqm=0 / deadzone=21,11 / fast_pskip=0 / chroma_qp_offset=-3 / threads=18 / lookahead_threads=3 / sliced_threads=0 / nr=0 / decimate=1 / interlaced=0 / bluray_compat=0 / constrained_intra=0 / bframes=9 / b_pyramid=2 / b_adapt=2 / b_bias=0 / direct=1 / weightb=1 / open_gop=0 / weightp=2 / keyint=250 / keyint_min=25 / scenecut=40 / intra_refresh=0 / rc=2pass / mbtree=0 / bitrate=2000 / ratetol=1.0 / qcomp=0.60 / qpmin=0 / qpmax=69 / qpstep=4 / cplxblur=20.0 / qblur=0.5 / ip_ratio=1.40 / pb_ratio=1.30 / aq=2:1.00
Default : Да
Forced : Нет
Цветовой диапазон : Limited
Основные цвета : BT.709
Характеристики трансфера : BT.709
Коэффициенты матрицы : BT.709

Аудио
Идентификатор : 2
Формат : AC-3
Формат/Информация : Audio Coding 3
Коммерческое название : Dolby Digital
Идентификатор кодека : A_AC3
Продолжительность : 49 м. 42 с.
Вид битрейта : Постоянный
Битрейт : 192 Кбит/сек
Каналы : 2 канала
Channel layout : L R
Частота : 48,0 КГц
Частота кадров : 31,250 кадров/сек (1536 SPF)
Битовая глубина : 16 бит
Метод сжатия : С потерями
Размер потока : 68,3 Мбайт (9%)
ServiceKind/String : Complete Main
Default : Да
Forced : Нет










   Похожие торренты   Торрент   Размер 
В этой теме нет новых непрочитанных сообщений. Реализация (1-12 серии из 24) (Виктор Шкуратов) [2018, детектив, WEBRip-AVC]

0 | 0

9.06 ГБ

В этой теме нет новых непрочитанных сообщений. Реализация (1-4 серии из 24) (Виктор Шкуратов) [2018, детектив, WEBRip]

58 | 9

2.49 ГБ

В этой теме нет новых непрочитанных сообщений. Реализация (1-4 серии из 24) (Виктор Шкуратов) [2018, детектив, WEBRip-AVC]

0 | 0

3.03 ГБ

В этой теме нет новых непрочитанных сообщений. Реализация (1-10 серии из 24) (Виктор Шкуратов) [2018, детектив, WEBRip-AVC]

0 | 0

7.54 ГБ

В этой теме нет новых непрочитанных сообщений. Реализация (1-18 серии из 24) (Виктор Шкуратов) [2018, детектив, WEBRip]

18 | 8

11.17 ГБ

В этой теме нет новых непрочитанных сообщений. Реализация (1-14 серии из 24) (Виктор Шкуратов) [2018, детектив, WEBRip-AVC]

2 | 6

10.54 ГБ

В этой теме нет новых непрочитанных сообщений. Реализация (1-16 серии из 24) (Виктор Шкуратов) [2018, детектив, WEBRip]

0 | 0

9.92 ГБ




Вы не можете начинать темы
Вы не можете отвечать на сообщения
Вы не можете редактировать свои сообщения
Вы не можете удалять свои сообщения
Вы не можете добавлять вложения

Перейти:  
Для Мосгорсуда, Роскомнадзора и рекламодателей: mosgorsud-torrent[собачка]yandex.ru
Регистрация  Вход
ppkBB3cker v.2 © 2008-2014 @ PPK
[ Time : 0.019s | 15 Queries | GZIP : Off ]

cron