img image001 image001 image001 image001 image001 image001 image001 image001 image001 image001 image001 image001 image001 image001 image001 image001
Planets Sun Sun Sun
Статистика раздачи
Автор: mari | Размер: 12.73 ГБ | Добавлен: 13 мар 2019
Раздают: 0    Качают: 0
Скачать торрент
Скачать торрент

СообщениеДобавлено: 13 мар 2019 

Реализация (1-6 серии из 24)

Перевод: Не требуется, cубтитры: отсутствуют
Формат: WEBRip 1080p, MKV, H.264, AC3
Страна: Россия
Режиссер: Виктор Шкуратов
Жанр: детектив
Всего серий: 24
Продолжительность: 6 x ~ 00:50:00
Год выпуска: 2018

В ролях: Дмитрий Паламарчук, Эдуард Флёров, Кирилл Рубцов, Сергей Юшкевич, Михаил Тарабукин, Максим Дахненко, Алексей Красноцветов, Ирина Ларионова, Игорь Ключников, Сергей Жарков, Елена Вожакина, Андрей Терентьев, Роман Агеев, Кирилл Полухин, Сергей Уманов, Вячеслав Аркунов, Алексей Штукин, Наталия Вязовская, Степан Пивкин, Виталий Салий, Юлия Кудояр, Игорь Грабузов, Антон Сычёв, Кирилл Кузнецов, Антон Чернов, Артём Цыпин, Владимир Петров (VIII), Станислав Ткаченко, Александр Клемантович, Олег Метелев, Юрий Ковалёв, Ирина Горкунова, Вячеслав Гумеров, Татьяна Ермилова (II), Дмитрий Могучев, Александр Петров (V), Михаил Сидаш, Геша Меньшиков, Александр Кратиров, Александр Колесник, Кира Кауфман, Егор Бакулин, Леонид Ворон, Никита Серков, Сергей Евдокимов, Анна Лутцева, Сергей Колос, Владислав Резник

Описание: Опытный розыскник из Великого Новгорода Андрей Красавец, после конфликта с криминальным бизнесменом, переведен на должность простого участкового в Центральный район Петербурга. Все, что хочет теперь Красавéц – это тихо и мирно прослужить три года, чтобы выйти на заслуженную пенсию. Но неожиданно он оказывается в центре разборки между авторитетом Дмитрием Яшиным и собственными коллегами из УМВД по Центральному району, что приводит к непредсказуемым последствиям…

Рейтинг и доп. информация:


Видео: 1920х1080, (16:9), 23,976 fps, AVC MPEG-4 (x264), ~ 6000 kbps , 0.116 bit/pixel
Аудио: 48 kHz, АС3, 2/0 (L,R), ~192.00 kbps avg
Внимание! Раздача ведётся путём добавления новых серий. При каждом добавлении создаётся новый торрент.
Чтобы начать докачку новой серии, пользователям необходимо сделать следующее:
1. Остановить скачивание.
2. Удалить старый торрент у себя из клиента (старые серии удалять не надо).
3. Скачать новый торрент и запустить его у себя в клиенте вместо старого, при этом указать клиенту путь в старую папку куда и должно происходить скачивание новых серий. Ваш клиент при этом должен произвести хеширование (проверку) старой папки и будет докачивать только те серии, которых у вас ещё нет. Старые серии при этом не удаляются, а продолжают раздаваться! Eсли вы уже удалили старые серии, то предотвратить повторную закачку старых серий можно, отжав галочку в соответствующих местах при запуске нового торрента.


Общее
Уникальный идентификатор : 187026003503036030862428738672270808982 (0x8CB3E5E6C5BA0B31893CC033FBA49796)
Полное имя : C:\Realizatsiya.2018.WEB-DL.(1080p).Nikolspup\Realizatsiya.(01.seriya).2018.WEB-DL.(1080p).Nikolspup.mkv
Формат : Matroska
Версия формата : Version 4
Размер файла : 2,14 Гбайт
Продолжительность : 49 м. 42 с.
Режим общего битрейта : Постоянный
Общий поток : 6167 Кбит/сек
Дата кодирования : UTC 2019-03-11 18:10:36
Программа кодирования : mkvmerge v7.8.0 (''River Man'') 32bit built on Mar 27 2015 16:18:02
Библиотека кодирования : libebml v1.3.1 + libmatroska v1.4.2

Видео
Идентификатор : 1
Формат : AVC
Формат/Информация : Advanced Video Codec
Профиль формата :
Настройки формата : 2 Ref Frames
Параметр CABAC формата : Нет
Параметр RefFrames формата : 2 кадра
Идентификатор кодека : V_MPEG4/ISO/AVC
Продолжительность : 49 м. 42 с.
Вид битрейта : Постоянный
Битрейт : 6000 Кбит/сек
Ширина : 1920 пикселей
Высота : 1080 пикселей
Соотношение сторон : 16:9
Режим частоты кадров : Постоянный
Частота кадров : 25,000 кадров/сек
Стандарт вещания : PAL
Цветовое пространство : YUV
Субдискретизация насыщенности : 4:2:0
Битовая глубина : 8 бит
Тип развёртки : Прогрессивная
Бит/(Пиксели*Кадры) : 0.116
Размер потока : 2,07 Гбайт (97%)
Default : Да
Forced : Нет
Цветовой диапазон : Limited
Основные цвета : BT.709
Характеристики трансфера : BT.709
Коэффициенты матрицы : BT.709

Аудио
Идентификатор : 2
Формат : AC-3
Формат/Информация : Audio Coding 3
Коммерческое название : Dolby Digital
Идентификатор кодека : A_AC3
Продолжительность : 49 м. 42 с.
Вид битрейта : Постоянный
Битрейт : 192 Кбит/сек
Каналы : 2 канала
Channel layout : L R
Частота : 48,0 КГц
Частота кадров : 31,250 кадров/сек (1536 SPF)
Битовая глубина : 16 бит
Метод сжатия : С потерями
Размер потока : 68,3 Мбайт (3%)
Язык : Russian
ServiceKind/String : Complete Main
Default : Да
Forced : Нет












   Похожие торренты   Торрент   Размер 
В этой теме нет новых непрочитанных сообщений. Реализация (1-12 серии из 24) (Виктор Шкуратов) [2018, детектив, WEBRip 1080p]

0 | 0

25.5 ГБ

В этой теме нет новых непрочитанных сообщений. Реализация (1-16 серии из 24) (Виктор Шкуратов) [2018, детектив, WEBRip 1080p]

0 | 0

33.97 ГБ

В этой теме нет новых непрочитанных сообщений. Реализация (1-24 серии из 24) (Виктор Шкуратов) [2018, детектив, WEBRip 1080p]

29 | 41

51.17 ГБ

В этой теме нет новых непрочитанных сообщений. Реализация (1-10 серии из 24) (Виктор Шкуратов) [2018, детектив, WEBRip 1080p]

11 | 9

21.23 ГБ

В этой теме нет новых непрочитанных сообщений. Реализация (1-20 серии из 24) (Виктор Шкуратов) [2018, детектив, WEBRip 1080p]

8 | 21

42.57 ГБ

В этой теме нет новых непрочитанных сообщений. Реализация (1-14 серии из 24) (Виктор Шкуратов) [2018, детектив, WEBRip 1080p]

10 | 20

29.68 ГБ

В этой теме нет новых непрочитанных сообщений. Реализация (1-4 серии из 24) (Виктор Шкуратов) [2018, детектив, WEBRip 1080p]

0 | 0

8.52 ГБ




Вы не можете начинать темы
Вы не можете отвечать на сообщения
Вы не можете редактировать свои сообщения
Вы не можете удалять свои сообщения
Вы не можете добавлять вложения

Перейти:  
Для Мосгорсуда, Роскомнадзора и рекламодателей: mosgorsud-torrent[собачка]yandex.ru
Регистрация  Вход
ppkBB3cker v.2 © 2008-2014 @ PPK
[ Time : 0.025s | 17 Queries | GZIP : Off ]

cron