img image001 image001 image001 image001 image001 image001 image001 image001 image001 image001 image001 image001 image001 image001 image001 image001
Planets Sun Sun Sun
Статистика раздачи
Автор: mari | Размер: 13.2 ГБ | Добавлен: 15 апр 2019
Раздают: 26    Качают: 19
Скачать торрент
Скачать торрент

СообщениеДобавлено: 15 апр 2019 

90-е. Весело и громко (1-21 серии из 21)

Перевод: Не требуется, субтитры: отсутствуют
Формат: WEB-DL 720р, MKV, H.264, AC3
Страна: Россия
Режиссер: Егор Карма
Жанр: комедия, музыка
Всего серий: 21
Продолжительность: 21 х ~ 00:25:00
Год выпуска: 2019

В ролях: Егор Трухин, Филипп Ершов, Стася Милославская, Роман Курцын, Дмитрий Никулин, Ян Цапник, Софья Евстигнеева, Сергей Лобынцев, Алексей Овсянников, Алексей Герилович, Максим Артамонов, Константин Фисенко, Юлия Егерева, Нодар Джанелидзе, Эдгар Гизатуллин, Кристина Кучеренко, Павел Демьянов, Владислав Дунаев, Елена Симони, Алексей Иванков, Гарик Айвазов, Маргарита Шилова, Лариса Маркина, Сергей Шанин, Алиса Колганова, Кирилл Гончаров, Анастасия Привалова, Виктория Лукина, Марк Доронин, Константин Столяров

Описание: История расскажет зрителям о случайно образовавшейся поп-группе, в состав которой войдут два гитариста Вася (Егор Трухин) и Паша (Филипп Ершов), студентка хорового училища Женя (Стася Милославская), десантник Боб (Роман Курцын) и преподаватель классического вокала Птицын (Дмитрий Никулин). На пути к славе будущих звёзд ждут криминальные авторитеты, малиновые пиджаки, «новейшие» гаджеты в виде пейджеров и тетрисов и, конечно, всемирно известные кумиры, в числе которых Фредди Меркьюри и Курт Кобейн.

Рейтинг и доп. информация:


Видео: 1280x720 (16:9), 25,000 fps, AVC (х264), , ~3500 kbps avg, 0.152 bit/pixel
Аудио: 48 kHz, AC3, 2/0 (L,R) ch, ~192.00 kbps avg
Общее
Уникальный идентификатор : 229428859563078281864748838882524034735 (0xAC9A641D6B89A7908BFD0AEB57F876AF)
Полное имя : I:\90-e.Veselo.i.gromko.2018.WEB-DL.(720p).Getty\90-e.Veselo.i.gromko.e01.2018.WEB-DL.(720p).Getty.mkv
Формат : Matroska
Версия формата : Version 2
Размер файла : 687 Мбайт
Продолжительность : 25 м. 39 с.
Режим общего битрейта : Переменный
Общий поток : 3743 Кбит/сек
Дата кодирования : UTC 2019-03-18 09:14:14
Программа кодирования : mkvmerge v4.0.0 (''The Stars were mine'') сборка от Jun 6 2010 16:18:42
Библиотека кодирования : libebml v1.0.0 + libmatroska v1.0.0

Видео
Идентификатор : 1
Формат : AVC
Формат/Информация : Advanced Video Codec
Профиль формата :
Параметр CABAC формата : Да
Параметр ReFrames формата : 5 кадров
Идентификатор кодека : V_MPEG4/ISO/AVC
Продолжительность : 25 м. 39 с.
Вид битрейта : Переменный
Битрейт : 3500 Кбит/сек
Максимальный битрейт : 40,0 Мбит/сек
Ширина : 1280 пикселей
Высота : 720 пикселей
Соотношение сторон : 16:9
Режим частоты кадров : Постоянный
Частота кадров : 25,000 кадров/сек
Цветовое пространство : YUV
Субдискретизация насыщенности : 4:2:0
Битовая глубина : 8 бит
Тип развёртки : Прогрессивная
Бит/(Пиксели*Кадры) : 0.152
Размер потока : 638 Мбайт (93%)
Язык : Russian
Default : Да
Forced : Нет

Аудио
Идентификатор : 2
Формат : AC-3
Формат/Информация : Audio Coding 3
Параметр Endianness формата : Big
Идентификатор кодека : A_AC3
Продолжительность : 25 м. 39 с.
Вид битрейта : Постоянный
Битрейт : 192 Кбит/сек
Каналы : 2 канала
Расположение каналов : Front: L R
Частота : 48,0 КГц
Частота кадров : 31,250 кадров/сек (1536 spf)
Битовая глубина : 16 бит
Метод сжатия : С потерями
Размер потока : 35,2 Мбайт (5%)
Язык : Russian
ServiceKind/String : Complete Main
Default : Да
Forced : Нет








   Похожие торренты   Торрент   Размер 
В этой теме нет новых непрочитанных сообщений. 90-е. Весело и громко (1-20 серии из 21) (Егор Карма) [2018, комедия, музыка, WEB-DL 720р]

4 | 8

12.53 ГБ

В этой теме нет новых непрочитанных сообщений. 90-е. Весело и громко (1-19 серии из 21) (Егор Карма) [2018, комедия, музыка, WEB-DL 720р]

0 | 6

11.9 ГБ

В этой теме нет новых непрочитанных сообщений. 90-е. Весело и громко (1-16 серии из 21) (Егор Карма) [2019, Комедия, музыка, WEB-DLRip 720р]

13 | 20

10.05 ГБ

В этой теме нет новых непрочитанных сообщений. 90-е. Весело и громко (1-17 серии из 21) (Егор Карма) [2019, Комедия, музыка, WEB-DLRip 720р]

2 | 13

10.67 ГБ

В этой теме нет новых непрочитанных сообщений. 90-е. Весело и громко (1-12 серии из 21) (Егор Карма) [2019, Комедия, музыка, WEB-DLRip 720р]

9 | 5

7.53 ГБ

В этой теме нет новых непрочитанных сообщений. 90-е. Весело и громко (1-13 серии из 21) (Егор Карма) [2019, Комедия, музыка, WEB-DLRip 720р]

3 | 1

8.16 ГБ

В этой теме нет новых непрочитанных сообщений. 90-е. Весело и громко (1-15 серии из 21) (Егор Карма) [2019, Комедия, музыка, WEB-DLRip 720р]

4 | 2

9.44 ГБ




Вы не можете начинать темы
Вы не можете отвечать на сообщения
Вы не можете редактировать свои сообщения
Вы не можете удалять свои сообщения
Вы не можете добавлять вложения

Перейти:  
Для Мосгорсуда, Роскомнадзора и рекламодателей: mosgorsud-torrent[собачка]yandex.ru
Регистрация  Вход
ppkBB3cker v.2 © 2008-2014 @ PPK
[ Time : 0.037s | 18 Queries | GZIP : Off ]

cron