img image001 image001 image001 image001 image001 image001 image001 image001 image001 image001 image001 image001 image001 image001 image001 image001
Planets Sun Sun Sun
Статистика раздачи
Автор: mari | Размер: 1.37 ГБ | Добавлен: 19 июл 2013
Раздают: 584    Качают: 12
Скачать торрент
Скачать торрент

СообщениеДобавлено: 19 июл 2013 

#77

Информация о фильме
Название: Убрать перископ
Оригинальное название: Down Periscope
Год выхода: 1996
Страна: США
Жанр: комедия
Режиссер: Дэвид С. Уорд
В ролях: Келси Грэммер, Лоурен Холли, Роб Шнайдер, Гарри Дин Стэнтон, Брюс Дерн, Уильям Х. Мэйси, Кен Хадсон Кэмпбелл, Тоби Хасс, Дуан Мартин, Джонатан Пеннер ...

О фильме:
Вместо долгожданной атомной подводной лодки капитан Том Додж получает в свое распоряжение допотопную дизельную развалину. Судя по внешнему виду, единственное, на что она способна — это последнее и очень быстрое погружение. Однако его это не смущает, ведь он самый веселый и бесшабашный капитан флота США, настоящий морской волк с татуировкой на интимном месте.

Под стать ему подобрался и экипаж. Более эксцентричных и нелепых матросов в природе не существует. А когда в качестве эксперимента на лодку назначается женщина-офицер, и без того неспокойные моряки просто сходят с ума…




Продолжительность: 01:32:00
Перевод: профессиональный одноголосный (Павел Санаев)

Файл
Кодек: XviD
Качество: DVDRip
Видео: 704x384, 23.976 fps, 1 718 Kbps
Звук: AC-3, 6 channels, 384 Kbps

Код:
 General
      Format : AVI
      Format/Info : Audio Video Interleave
      File size : 1.37 GiB
      Duration : 1h 32mn
      Overall bit rate : 2 109 Kbps
      Writing application : VirtualDubMod 1.5.4.1 (build 2178/release)
      Writing library : VirtualDubMod build 2178/release
   Video
      Format : MPEG-4 Visual
      Format profile : Streaming Video@L1
      Format settings, BVOP : Yes
      Format settings, QPel : No
      Format settings, GMC : No warppoints
      Format settings, Matrix : Custom
      Codec ID : XVID
      Codec ID/Hint : XviD
      Duration : 1h 32mn
      Bit rate : 1 718 Kbps
      Width : 704 pixels
      Height : 384 pixels
      Display aspect ratio : 16/9
      Frame rate : 23.976 fps
      Resolution : 24 bits
      Colorimetry : 4:2:0
      Scan type : Progressive
      Bits/(Pixel*Frame) : 0.265
      Stream size : 1.11 GiB (81%)
      Writing library : XviD 1.2.0.dev47 (UTC 2006-11-01)
   Audio
      Format : AC-3
      Format/Info : Audio Coding 3
      Codec ID : 2000
      Duration : 1h 32mn
      Bit rate mode : Constant
      Bit rate : 384 Kbps
      Channel(s) : 6 channels
      Channel positions : Front: L C R, Surround: L R, LFE
      Sampling rate : 48.0 KHz
      Video delay : 16ms
      Stream size : 255 MiB (18%)
      Alignment : Split accross interleaves
      Interleave, duration : 96 ms (2.30 video frames)
      Interleave, preload duration : 96 ms
      Language : Russian









   Похожие торренты   Торрент   Размер 
В этой теме нет новых непрочитанных сообщений. Убрать перископ / Down Periscope (1996) WEB-DL 720p | A, P, P2

848 | 30

3.78 ГБ

В этой теме нет новых непрочитанных сообщений. Убрать перископ / Down Periscope (1996) HDRip от Scarabey | P

262 | 17

1.45 ГБ

В этой теме нет новых непрочитанных сообщений. Убрать перископ / Down Periscope (1996) WEB-DLRip от MegaPeer | A, P, P2

137 | 19

2.21 ГБ

В этой теме нет новых непрочитанных сообщений. Убрать перископ / Down Periscope (1996) HDTVRip от Leon-masl | P, A

633 | 21

1.37 ГБ

В этой теме нет новых непрочитанных сообщений. Убрать перископ / Down Periscope (Дэвид С. Уорд) [1996, комедия, WEB-DLRip-AVC] AVO+DVO

2 | 0

745.81 МБ

В этой теме нет новых непрочитанных сообщений. Троих нужно убрать / 3 Hommes A Abattre (1980) DVDRip-AVC | D, P

21 | 7

2.31 ГБ

В этой теме нет новых непрочитанных сообщений. Лысак Сергей - Поднять перископ 2. У чужих берегов (2015) MP3

191 | 9

1.29 ГБ




Вы не можете начинать темы
Вы не можете отвечать на сообщения
Вы не можете редактировать свои сообщения
Вы не можете удалять свои сообщения
Вы не можете добавлять вложения

Перейти:  
Для Мосгорсуда, Роскомнадзора и рекламодателей: mosgorsud-torrent[собачка]yandex.ru
 Вход
ppkBB3cker v.2 © 2008-2014 @ PPK
[ Time : 0.023s | 18 Queries | GZIP : Off ]

Торрент трекер RS-torrent.com
cron