img image001 image001 image001 image001 image001 image001 image001 image001 image001 image001 image001 image001 image001 image001 image001 image001
Planets Sun Sun Sun
Статистика раздачи
Автор: Nickolas3434 | Размер: 2.59 ГБ | Добавлен: 07 мар 2014
Раздают: 256    Качают: 91
Скачать торрент
Скачать торрент

СообщениеДобавлено: 07 мар 2014 

Информация о фильме
Название: Короли Лондона
Оригинальное название: Lords of London / Lost in Italy
Год выхода: 2013
Жанр: триллер, детектив
Режиссер: Антонио Симончини
В ролях: Глен Мерфи, Рэй Уинстон, Джованни Капальбо, Серена Иансити, Кристофер Хатрэлл, Кассиус Теренс Мерфи, Глин Гримстед, Хелен Лэтэм, Джо Иган, Марк Адамс

О фильме:
Тони можно назвать потомственным гангстером: он с самого детства знал, что будет заниматься тем же, чем и отец. Сейчас Тони – мужчина средних лет, и у него есть серьезная проблема. Он проснулся в сельском домике в одной из итальянских деревушек, которая представляет собой замкнутый мирок и, кажется, практически не взаимодействует к окружающим миром. Тони понятия не имеет, как оказался здесь, почему его одежда испачкана кровью, где именно он находится и что произошло накануне.

Телефонов в деревушке нет, так что Тони не может связаться со своими «коллегами» или знакомыми и попросить помощи. Столкнувшись с мужчиной по имени Франческо и выслушав его историю, Тони чувствует с новым знакомым необъяснимую связь. То, что рассказал ему Франческо о своей семье и о ситуации, в которой она оказалась, Тони почему-то принимает близко к сердцу. Эта история полна насилия, крови и страха – того, к чему Тони давным-давно привык и от чего за многие годы успел устать.



Выпущено: Великобритания
Продолжительность: 01:32:07
Озвучивание: Профессиональное (многоголосное)

Файл
Формат: MKV
Качество: WEB-DL 720p
Видео: MPEG-4 (AVC), 3748 kb/s, 1280x534
Аудио: Russian: AC3, 192 kb/s (2 ch)

Дополнительно: Сохранены оригинальные чаптеры как на Blu-Ray

Релиз от: MegaPeer ==>



Общее
Уникальный идентификатор : 205610387457588698561746462422241172599 (0x9AAF1EC5F651940698F0BA1BC240DC77)
Полное имя : D:РелизыLords.Of.London.2014.720p.WEB-DL.x264.MegaPeer.mkv
Формат : Matroska
Версия формата : Version 4 / Version 2
Размер файла : 2,59 Гбайт
Продолжительность : 1 ч. 32 м.
Общий поток : 4020 Кбит/сек
Дата кодирования : UTC 2014-03-06 16:24:21
Программа кодирования : mkvmerge v6.7.0 ('Back to the Ground') 64bit built on Jan 8 2014 15:10:52
Библиотека кодирования : libebml v1.3.0 + libmatroska v1.4.1

Видео
Идентификатор : 1
Формат : AVC
Формат/Информация : Advanced Video Codec
Профиль формата : High@L3.1
Параметр CABAC формата : Да
Параметр ReFrames формата : 4 кадра
Идентификатор кодека : V_MPEG4/ISO/AVC
Продолжительность : 1 ч. 32 м.
Битрейт : 3748 Кбит/сек
Ширина : 1280 пикселей
Высота : 534 пикселя
Соотношение сторон : 2,40:1
Режим частоты кадров : Постоянный
Частота кадров : 25,000 кадров/сек
Цветовое пространство : YUV
Субдискретизация насыщенности : 4:2:0
Битовая глубина : 8 бит
Тип развёртки : Прогрессивная
Бит/(Пиксели*Кадры) : 0.219
Размер потока : 2,41 Гбайт (93%)
Язык : English
Default : Да
Forced : Нет
Основные цвета : BT.709
Характеристики трансфера : BT.709
Коэффициенты матрицы : BT.709

Аудио
Идентификатор : 2
Формат : AC-3
Формат/Информация : Audio Coding 3
Расширение режима : CM (complete main)
Параметр Endianness формата : Big
Идентификатор кодека : A_AC3
Продолжительность : 1 ч. 32 м.
Вид битрейта : Постоянный
Битрейт : 192 Кбит/сек
Каналы : 2 канала
Расположение каналов : Front: L R
Частота : 48,0 КГц
Битовая глубина : 16 бит
Метод сжатия : С потерями
Задержка видео : -80 мс.
Размер потока : 127 Мбайт (5%)
Язык : Russian
Default : Да
Forced : Нет

Меню
00:00:00.000 : :Chapter 1
00:07:00.000 : :Chapter 2
00:15:24.000 : :Chapter 3
00:21:04.000 : :Chapter 4
00:27:42.000 : :Chapter 5
00:35:47.000 : :Chapter 6
00:47:59.000 : :Chapter 7
00:54:30.000 : :Chapter 8
01:05:34.000 : :Chapter 9
01:11:50.000 : :Chapter 10
01:21:32.000 : :Chapter 11
01:30:06.000 : :Chapter 12



   Похожие торренты   Торрент   Размер 
В этой теме нет новых непрочитанных сообщений. Короли Лондона / Lords of London / Lost in Italy (2013) WEB-DL 1080p от CINEMANIA | НТВ+

968 | 141

3.07 ГБ

В этой теме нет новых непрочитанных сообщений. Короли Лондона / Lords of London / Lost in Italy (2014) BDRip 720p от CINEMANIA | НТВ+

345 | 61

4.57 ГБ

В этой теме нет новых непрочитанных сообщений. Короли Лондона / Lords of London / Lost in Italy (2014) BDRip 1080p от CINEMANIA | НТВ+

134 | 28

6.95 ГБ

В этой теме нет новых непрочитанных сообщений. Короли Лондона / Lords of London (2013) Blu-ray 1080i от NovaLan

20 | 20

15.25 ГБ

В этой теме нет новых непрочитанных сообщений. Короли Лондона / Lords of London (2013) BDRemux 1080i от NovaLan

29 | 26

14.12 ГБ

В этой теме нет новых непрочитанных сообщений. Из Лондона в Брайтон / London to Brighton (2006) DVDRip от FilmRus | P2, L1

113 | 25

1.37 ГБ

В этой теме нет новых непрочитанных сообщений. Короли Догтауна / Lords of Dogtown (2005) BDRip 720p от Leonardo | Extended Cut | P2

54 | 8

4.37 ГБ




Вы не можете начинать темы
Вы не можете отвечать на сообщения
Вы не можете редактировать свои сообщения
Вы не можете удалять свои сообщения
Вы не можете добавлять вложения

Перейти:  
Для Мосгорсуда, Роскомнадзора и рекламодателей: mosgorsud-torrent[собачка]yandex.ru
 Вход
ppkBB3cker v.2 © 2008-2014 @ PPK
[ Time : 0.030s | 17 Queries | GZIP : Off ]

Торрент трекер RS-torrent.com
cron