img image001 image001 image001 image001 image001 image001 image001 image001 image001 image001 image001 image001 image001 image001 image001 image001
Planets Sun Sun Sun
Статистика раздачи
Автор: Nickolas3434 | Размер: 745.05 МБ | Добавлен: 20 апр 2014
Раздают: 47    Качают: 11
Скачать торрент
Скачать торрент

СообщениеДобавлено: 20 апр 2014 

Страна: Польша, США
Производство: TriStar Pictures

Жанр: боевик, триллер, комедия, криминал
Год выпуска: 1990
Продолжительность: 01:34:10

Перевод: Профессиональный (двухголосый закадровый)
Оригинальная аудиодорожка: нет
Cубтитры: нет

Режиссер: Боб Кларк / Bob Clark

В ролях:
Джин Хэкмэн, Дэн Эйкройд, Дом ДеЛуиз, Ронни Кокс, Нэнси Трэвис, Роберт Проски, Пол Косло, Дик О'Нэйлл, Ян Триска, Леон Риппи (Gene Hackman, Dan Aykroyd, Dom DeLuise, Ronny Cox, Nancy Travis, Robert Prosky, Paul Koslo, Dick O'Neill, Jan Triska, Leon Rippy)...

Описание:
Они должны были стать идеальной командой. Мак Стерн — крутой вашингтонский коп-ветеран, не стесняющийся пускать в ход пудовые кулаки и верный пистолет. И Эллис Филдинг — умница детектив, чьи дедуктивные таланты заставили бы покраснеть от зависти самого Шерлока Холмса. Но, как известно, в любой бочке меда есть цистерна дегтя. Мак любезен как разъяренный бультерьер, а у Эллиса… У Эллиса, мягко говоря, не все дома. В минуты стресса он впадает в легкий психоз, начиная воображать себя то одним, то другим популярным телегероем. И вот этой невменяемой парочке поручают расследование серии убийств, как-то связанных со зловещими тайнами Третьего Рейха! Такого цирка жители Вашингтона еще не видели!..





Исходник: DVD5
Тип релиза: DVDRip
Контейнер: AVI

Видео: 704x304 (2.35:1), 23.976 fps, XviD ~ 969 kbps avg, 0.189 bit/pixel
Аудио: 48 kHz, MP3 2.0, 128 kbps

Раздача от:
Общее
Полное имя : Bolshoy.kalibr.1990.DVDRip-745_[New-team]_by_AVP_Studio.avi
Формат : AVI
Формат/Информация : Audio Video Interleave
Размер файла : 745 Мбайт
Продолжительность : 1 ч. 34 м.
Общий поток : 1106 Кбит/сек
Программа кодирования : VirtualDubModRus 1.5.10.2 (build 2542/release)
Библиотека кодирования : VirtualDubMod build 2542/release

Видео
Идентификатор : 0
Формат : MPEG-4 Visual
Профиль формата : Advanced Simple@L5
Параметр BVOP формата : 1
Параметр QPel формата : Нет
Параметр GMC формата : Без точки перехода
Параметр матрицы формата : Выборочная
Идентификатор кодека : XVID
Идентификатор кодека/Подсказка : XviD
Продолжительность : 1 ч. 34 м.
Битрейт : 969 Кбит/сек
Ширина : 704 пикселя
Высота : 304 пикселя
Соотношение сторон : 2,35:1
Частота кадров : 23,976 кадра/сек
Цветовое пространство : YUV
Субдискретизация насыщенности : 4:2:0
Битовая глубина : 8 бит
Тип развёртки : Прогрессивная
Метод сжатия : С потерями
Бит/(Пиксели*Кадры) : 0.189
Размер потока : 653 Мбайт (88%)
Библиотека кодирования : XviD 73

Аудио
Идентификатор : 1
Формат : MPEG Audio
Версия формата : Version 1
Профиль формата : Layer 3
Идентификатор кодека : 55
Идентификатор кодека/Подсказка : MP3
Продолжительность : 1 ч. 34 м.
Вид битрейта : Постоянный
Битрейт : 128 Кбит/сек
Каналы : 2 канала
Частота : 48,0 КГц
Метод сжатия : С потерями
Размер потока : 86,2 Мбайт (12%)
Выравнивание : Соединение по промежуткам
Продолжительность промежутка : 42 мс. (1,00 видеокадр)
Время предзагрузки промежутка : 504 мс.
Библиотека кодирования : LAME3.99r
Настройки программы : -m s -V 4 -q 2 -lowpass 17 -b 128





   Похожие торренты   Торрент   Размер 
В этой теме нет новых непрочитанных сообщений. Большой калибр / Loose Cannons (1990) DVDRip от New-Team

45 | 19

1.46 ГБ

В этой теме нет новых непрочитанных сообщений. Большой калибр / Loose Cannons (1990) DVDRip-AVC от New-Team

40 | 9

1.46 ГБ

В этой теме нет новых непрочитанных сообщений. Большой калибр / Loose Cannons (1990) HDTVRip от Leon-masl | P2, A

75 | 7

1.46 ГБ

В этой теме нет новых непрочитанных сообщений. Сдвиг по фазе / Большой калибр / Loose Cannons (1990) HDTVRip 720p от Brazzass

106 | 19

4.26 ГБ

В этой теме нет новых непрочитанных сообщений. Любовь и 45 калибр / Love and a .45 (1994) DVDRip | P2

334 | 56

1.49 ГБ

В этой теме нет новых непрочитанных сообщений. Савой (1990) DVDRip от New-Team

8 | 7

743.89 МБ

В этой теме нет новых непрочитанных сообщений. Зверобой (1990) DVDRip от New-Team

60 | 18

1.45 ГБ




Вы не можете начинать темы
Вы не можете отвечать на сообщения
Вы не можете редактировать свои сообщения
Вы не можете удалять свои сообщения
Вы не можете добавлять вложения

Перейти:  
Для Мосгорсуда, Роскомнадзора и рекламодателей: mosgorsud-torrent[собачка]yandex.ru
 Вход
ppkBB3cker v.2 © 2008-2014 @ PPK
[ Time : 0.030s | 18 Queries | GZIP : Off ]

Торрент трекер RS-torrent.com
cron