img image001 image001 image001 image001 image001 image001 image001 image001 image001 image001 image001 image001 image001 image001 image001 image001
Planets Sun Sun Sun
Статистика раздачи
Автор: Nickolas3434 | Размер: 2.91 ГБ | Добавлен: 02 май 2014
Раздают: 718    Качают: 46
Скачать торрент
Скачать торрент

СообщениеДобавлено: 02 май 2014 

Страна: США
Производство: First Mate Productions Inc., Jerry Bruckheimer Films, Walt Disney Pictures

Жанр: фэнтези, боевик, приключения
Год выпуска: 2003
Продолжительность: 02:23:10

Перевод: Профессиональный (полное дублирование)
Оригинальная аудиодорожка: нет
Cубтитры: русский, английский

Режиссер: Гор Вербински / Gore Verbinski

В ролях:
Джонни Депп, Джеффри Раш, Орландо Блум, Кира Найтли, Джек Девенпорт, Кевин МакНэлли, Джонатан Прайс, Ли Аренберг, Макензи Крук, Дэвид Бэйли...

Роли дублировали:
Александр Баргман, Виктор Костецкий, Андрей Зайцев, Евгения Игумнова, Евгений Дятлов...

Описание:
Жизнь харизматичного авантюриста, капитана Джека Воробья, полная увлекательных приключений, резко меняется, когда его заклятый враг — капитан Барбосса — похищает корабль Джека, Черную Жемчужину, а затем нападает на Порт Ройал и крадет прекрасную дочь губернатора, Элизабет Свонн. Друг детства Элизабет, Уилл Тернер, вместе с Джеком возглавляет спасательную экспедицию на самом быстром корабле Британии, в попытке вызволить девушку из плена и заодно отобрать у злодея Черную Жемчужину. Вслед за этой парочкой отправляется амбициозный коммодор Норрингтон, который к тому же числится женихом Элизабет. Однако Уилл не знает, что над Барбоссой висит вечное проклятие, при лунном свете превращающее его с командой в живых скелетов. Проклятье будет снято лишь тогда, когда украденное золото Ацтеков будет возвращено пиратами на старое место…







Исходник: BDRemux 1080p
Тип релиза: BDRip-AVC
Контейнер: MKV

Видео: 1024x426 (2,40:1), 23,976 fps, H264 ~ 2457 kbps avg, 0.235 bit/pixel
Аудио: 48 kHz, Dolby Digital AC3 5.1, 448 kbps
Субтитры: SoftSub (srt)

Раздача от:
Общее
Полное имя : Proklyatie.Chernoy.zhemchuzhiny.2003.BDRip-AVC_[New-team]_by_AVP_Studio.mkv
Формат : Matroska
Версия формата : Version 4 / Version 2
Размер файла : 2,91 Гбайт
Продолжительность : 2 ч. 23 м.
Общий поток : 2905 Кбит/сек
Название фильма : Proklyatie.Chernoy.zhemchuzhiny.2003.BDRip-AVC_[New-team]_by_AVP_Studio
Дата кодирования : UTC 2014-05-01 07:34:57
Программа кодирования : mkvmerge v6.9.1 ('Blue Panther') 64bit built on Apr 18 2014 18:23:38
Библиотека кодирования : libebml v1.3.0 + libmatroska v1.4.1

Видео
Идентификатор : 1
Формат : AVC
Формат/Информация : Advanced Video Codec
Профиль формата : High@L4.1
Параметр CABAC формата : Да
Параметр ReFrames формата : 8 кадров
Идентификатор кодека : V_MPEG4/ISO/AVC
Продолжительность : 2 ч. 23 м.
Битрейт : 2457 Кбит/сек
Ширина : 1024 пикселя
Высота : 426 пикселей
Соотношение сторон : 2,40:1
Режим частоты кадров : Постоянный
Частота кадров : 23,976 кадра/сек
Цветовое пространство : YUV
Субдискретизация насыщенности : 4:2:0
Битовая глубина : 8 бит
Тип развёртки : Прогрессивная
Бит/(Пиксели*Кадры) : 0.235
Размер потока : 2,40 Гбайт (83%)
Заголовок : Источник BDRemux
Библиотека кодирования : x264 core 138 r2356 a1d3d17
Настройки программы : cabac=1 / ref=8 / deblock=1:-3:-2 / analyse=0x3:0x113 / me=umh / subme=10 / psy=1 / psy_rd=1.00:0.05 / mixed_ref=1 / me_range=32 / chroma_me=1 / trellis=2 / 8x8dct=1 / cqm=0 / deadzone=21,11 / fast_pskip=0 / chroma_qp_offset=-3 / threads=3 / lookahead_threads=1 / sliced_threads=0 / nr=0 / decimate=0 / interlaced=0 / bluray_compat=0 / constrained_intra=0 / bframes=8 / b_pyramid=2 / b_adapt=2 / b_bias=0 / direct=3 / weightb=1 / open_gop=0 / weightp=2 / keyint=240 / keyint_min=24 / scenecut=40 / intra_refresh=0 / rc_lookahead=40 / rc=2pass / mbtree=1 / bitrate=2457 / ratetol=1.0 / qcomp=0.60 / qpmin=0 / qpmax=69 / qpstep=4 / cplxblur=20.0 / qblur=0.5 / ip_ratio=1.40 / aq=1:1.00
Язык : English
Default : Да
Forced : Нет

Аудио
Идентификатор : 2
Формат : AC-3
Формат/Информация : Audio Coding 3
Расширение режима : CM (complete main)
Параметр Endianness формата : Big
Идентификатор кодека : A_AC3
Продолжительность : 2 ч. 23 м.
Вид битрейта : Постоянный
Битрейт : 448 Кбит/сек
Каналы : 6 каналов
Расположение каналов : Front: L C R, Side: L R, LFE
Частота : 48,0 КГц
Битовая глубина : 16 бит
Метод сжатия : С потерями
Размер потока : 459 Мбайт (15%)
Заголовок : Источник BDRemux Dolby Digital 5,1 448kb
Язык : Russian
Default : Да
Forced : Нет

Текст #1
Идентификатор : 3
Формат : UTF-8
Идентификатор кодека : S_TEXT/UTF8
Идентификатор кодека/Информация : UTF-8 Plain Text
Заголовок : Источник BDRemux SoftSub (srt)
Язык : Russian
Default : Нет
Forced : Нет

Текст #2
Идентификатор : 4
Формат : UTF-8
Идентификатор кодека : S_TEXT/UTF8
Идентификатор кодека/Информация : UTF-8 Plain Text
Заголовок : Источник BDRemux SoftSub (srt)
Язык : Russian
Default : Нет
Forced : Нет

Текст #3
Идентификатор : 5
Формат : UTF-8
Идентификатор кодека : S_TEXT/UTF8
Идентификатор кодека/Информация : UTF-8 Plain Text
Заголовок : Источник BDRemux SoftSub (srt)
Язык : English
Default : Нет
Forced : Нет

Меню
00:00:00.000 : ru:00:00:00.000000000
00:05:00.000 : :00:05:00.000000000
00:10:00.000 : :00:10:00.000000000
00:15:00.000 : :00:15:00.000000000
00:20:00.000 : :00:20:00.000000000
00:25:00.000 : :00:25:00.000000000
00:30:00.000 : :00:30:00.000000000
00:35:00.000 : :00:35:00.000000000
00:40:00.000 : :00:40:00.000000000
00:45:00.000 : :00:45:00.000000000
00:50:00.000 : :00:50:00.000000000
00:55:00.000 : :00:55:00.000000000
01:00:00.000 : :01:00:00.000000000
01:05:00.000 : :01:05:00.000000000
01:10:00.000 : :01:10:00.000000000
01:15:00.000 : :01:15:00.000000000
01:20:00.000 : :01:20:00.000000000
01:25:00.000 : :01:25:00.000000000
01:30:00.000 : :01:30:00.000000000
01:35:00.000 : :01:35:00.000000000
01:40:00.000 : :01:40:00.000000000
01:45:00.000 : :01:45:00.000000000
01:50:00.000 : :01:50:00.000000000
01:55:00.000 : :01:55:00.000000000
02:00:00.000 : :02:00:00.000000000
02:05:00.000 : :02:05:00.000000000
02:10:00.000 : :02:10:00.000000000
02:15:00.000 : :02:15:00.000000000
02:20:00.000 : :02:20:00.000000000





   Похожие торренты   Торрент   Размер 
В этой теме нет новых непрочитанных сообщений. Пираты Карибского моря: Проклятие Черной жемчужины / Pirates of the Caribbean: The Curse of the Black Pearl (2003) BDRip-AVC от Scarabey | D

356 | 40

793.28 МБ

В этой теме нет новых непрочитанных сообщений. Пираты Карибского моря: Проклятие Черной жемчужины / Pirates of the Caribbean: The Curse of the Black Pearl (2003) BDRip 720p от NNNB | 60 fps

90 | 20

6.31 ГБ

В этой теме нет новых непрочитанных сообщений. Пираты Карибского Моря: Проклятье Чёрной Жемчужины/Pirates of the Caribbean: The Curse of the Black Pearl (2003) BDRip 1080р от NNNB|60fps

529 | 111

11.92 ГБ

В этой теме нет новых непрочитанных сообщений. Пираты Карибского моря: Квадрология / Pirates of the Caribbean: Quadrilogy (2003-2011) BDRip от MediaClub | КПК

444 | 253

2.64 ГБ

В этой теме нет новых непрочитанных сообщений. Пираты Карибского моря: Квадрология / Pirates of the Caribbean Sea: Quadrilogy (2003 - 2011) BDRip-AVC от R.G. HD-Films | 60 fps

1736 | 390

15.77 ГБ

В этой теме нет новых непрочитанных сообщений. Пираты Карибского моря: Пенталогия / Pirates of the Caribbean: Pentology (2003-2017) BDRip-HEVC 1080p от ХиМиК | D

193 | 126

37.28 ГБ

В этой теме нет новых непрочитанных сообщений. Пираты Карибского моря: Сундук мертвеца / Pirates of the Caribbean: Dead Man's Chest (2006) BDRip-AVC от New-Team | D

471 | 42

2.91 ГБ




Вы не можете начинать темы
Вы не можете отвечать на сообщения
Вы не можете редактировать свои сообщения
Вы не можете удалять свои сообщения
Вы не можете добавлять вложения

Перейти:  
Для Мосгорсуда, Роскомнадзора и рекламодателей: mosgorsud-torrent[собачка]yandex.ru
 Вход
ppkBB3cker v.2 © 2008-2014 @ PPK
[ Time : 0.020s | 18 Queries | GZIP : Off ]

Торрент трекер RS-torrent.com
cron