img image001 image001 image001 image001 image001 image001 image001 image001 image001 image001 image001 image001 image001 image001 image001 image001
Planets Sun Sun Sun
Статистика раздачи
Автор: PriZraK | Размер: 8.2 ГБ | Добавлен: 15 июн 2014
Раздают: 98    Качают: 78
Скачать торрент
Скачать торрент

СообщениеДобавлено: 15 июн 2014 

Информация о фильме
Название: Преступник
Оригинальное название: Felon
Год выхода: 2008
Жанр: Драма, криминал
Режиссер: Рик Роман Во
В ролях: Стивен Дорфф, Марисоль Николс, Винсент Миллер, Энн Арчер, Вэл Килмер, Сэм Шепард, Джонни Льюис, Хэролд Перрино, Шоун Принц, Крис Браунинг, Ник Чинланд, Грег Серано, Джэйк Уолкер, Нэйт Паркер, Майкл Сил, Марк Сивертсен, Бриттани Периньо, Кевин Уиггинс, Джон Кояма

О фильме:
"Вэйд Портер (Стивен Дорфф) - счастливый семьянин с многообещающими планами на будущее - внезапно лишается всего, когда убивает ворвавшегося в его дом злоумышленника, угрожающего жизням его жены и сына. По обвинению в преднамеренном убийстве он попадает на три года за решетку в один из наиболее охраняемых объектов, где правила общества больше не действуют…. Вынужденный делить камеру с ненасытным серийным убийцей (Вэл Килмер), и ставший объектом жестоких побоев - Вэйд осознает, что борьба за собственную жизнь не имеет ничего общего с гуманностью и терпимостью. Его задача стать самым крепким, жестоким и безжалостным заключенным из всех, чтобы выжить. Его кредо: то, что не убивает тебя - делает сильнее."


Страна: США
Студия: Pantry Films, Stage 6 Films, Tooley Productions
Продолжительность: 01:44:04
Перевод: Профессиональный (многоголосый, закадровый)

Файл
Кодек: h.264, AVC
Качество: BDRip 1080p
Видео: MPEG-4, 1920x1036, 10.4 Мбит/с, 25.000 кадр/с
Звук:
Аудио #1: Русский ( AC3, 6ch, 448 Кбит/с, 48.0 KHz) Профессиональный многоголосый
Аудио #2: Английский ( AC3, 6ch, 256 Кбит/с, 48.0 KHz) Оригинал
Complete name : Felon.2008.BDRip.1080p.mkv
Format : Matroska
Format version : Version 4 / Version 2
File size : 8.20 GiB
Duration : 1h 44mn
Overall bit rate : 11.3 Mbps
Encoded date : UTC 2014-06-14 18:56:32
Writing application : mkvmerge v6.9.1 ('Blue Panther') 64bit built on Apr 18 2014 18:23:38
Writing library : Lavf55.12.100

Video
ID : 1
Format : AVC
Format/Info : Advanced Video Codec
Format profile : High@L4.0
Format settings, CABAC : Yes
Format settings, ReFrames : 4 frames
Codec ID : V_MPEG4/ISO/AVC
Duration : 1h 44mn
Bit rate : 10.4 Mbps
Width : 1 920 pixels
Height : 1 036 pixels
Display aspect ratio : 1.85:1
Frame rate mode : Constant
Frame rate : 25.000 fps
Color space : YUV
Chroma subsampling : 4:2:0
Bit depth : 8 bits
Scan type : Progressive
Bits/(Pixel*Frame) : 0.208
Stream size : 7.53 GiB (92%)
Default : Yes
Forced : No

Audio #1
ID : 2
Format : AC-3
Format/Info : Audio Coding 3
Mode extension : CM (complete main)
Format settings, Endianness : Big
Codec ID : A_AC3
Duration : 1h 44mn
Bit rate mode : Constant
Bit rate : 448 Kbps
Channel(s) : 6 channels
Channel positions : Front: L C R, Side: L R, LFE
Sampling rate : 48.0 KHz
Bit depth : 16 bits
Compression mode : Lossy
Delay relative to video : -80ms
Stream size : 334 MiB (4%)
Title : Audio 1
Language : Russian
Default : Yes
Forced : No

Audio #2
ID : 3
Format : AC-3
Format/Info : Audio Coding 3
Mode extension : CM (complete main)
Format settings, Endianness : Big
Codec ID : A_AC3
Duration : 1h 44mn
Bit rate mode : Constant
Bit rate : 256 Kbps
Channel(s) : 6 channels
Channel positions : Front: L C R, Side: L R, LFE
Sampling rate : 48.0 KHz
Bit depth : 16 bits
Compression mode : Lossy
Delay relative to video : -80ms
Stream size : 191 MiB (2%)
Title : Audio 2
Language : English
Default : No
Forced : No





   Похожие торренты   Торрент   Размер 
В этой теме нет новых непрочитанных сообщений. Преступник / Felon (2008) BDRip 720p от HDClub | P, A

86 | 22

10.84 ГБ

В этой теме нет новых непрочитанных сообщений. Леди коп и папочка преступник / Daai sau cha ji neui / Lady Cop And Papa Crook (2008) BDRip 1080p от MediaClub | L1

1 | 3

8.98 ГБ

В этой теме нет новых непрочитанных сообщений. Леди коп и папочка преступник / Daai sau cha ji neui / Lady Cop And Papa Crook (2008) Blu-ray Remux 1080p от MediaClub | L1

4 | 5

18.51 ГБ

В этой теме нет новых непрочитанных сообщений. Леди коп и папочка преступник / Daai sau cha ji neui / Lady Cop And Papa Crook (2008) BDRip (AVC) от MediaClub | L1

11 | 8

2.61 ГБ

В этой теме нет новых непрочитанных сообщений. Преступник / Criminal (2016) BDRip 1080p | D, А | Лицензия

149 | 15

8.61 ГБ

В этой теме нет новых непрочитанных сообщений. Преступник / Criminal (2016) BDRip 1080p от OlLanDGroup | Лицензия

65 | 14

9.72 ГБ

В этой теме нет новых непрочитанных сообщений. Преступник / Criminal (2016) BDRip 1080p от ExKinoRay | iTunes

221 | 191

14.15 ГБ




Вы не можете начинать темы
Вы не можете отвечать на сообщения
Вы не можете редактировать свои сообщения
Вы не можете удалять свои сообщения
Вы не можете добавлять вложения

Перейти:  
Для Мосгорсуда, Роскомнадзора и рекламодателей: mosgorsud-torrent[собачка]yandex.ru
 Вход
ppkBB3cker v.2 © 2008-2014 @ PPK
[ Time : 0.031s | 16 Queries | GZIP : Off ]

Торрент трекер RS-torrent.com
cron