img image001 image001 image001 image001 image001 image001 image001 image001 image001 image001 image001 image001 image001 image001 image001 image001
Planets Sun Sun Sun
Статистика раздачи
Автор: Nickolas3434 | Размер: 1.46 ГБ | Добавлен: 09 авг 2016
Раздают: 20    Качают: 4
Скачать торрент
Скачать торрент

СообщениеДобавлено: 09 авг 2016 


Страна: Великобритания
Жанр: Фэнтези, боевик, драма, приключения
Год выпуска: 1986
Продолжительность: 01:56:39
Перевод: Профессиональный (многоголосый закадровый) СТС
Cубтитры: русские, английские
Режиссер: Рассел Малкэхи / Russell Mulcahy
В ролях: Шон Коннери, Кланси Браун, Кристофер Ламберт, Селия Аймри, Шейла Гиш, Питер Дайамонд, Джеймс Космо, Хью Куарши, Кристофер Малкольм, Алан Норт, Джон Полито, Роксана Харт, Билли Хартмэн, Бити Эдни, Эдвард Уайли, Джон Кэсседи, Йен Реддингтон, Сион Тудор Оуэн, Дэмиен Лик, Гордон Стерн, Рон Берглас, Луис Гусс, Питер Бэнкс, Джеймс МакКенна, Тед Мэйнард, Энтони Маннино, Хелена Стивенс, Фрэнк Дюкс, Энтони Фуско, Йен Тайлер
Описание: Коннор Маклауд — шотландец, который в 1536 году был сражён в битве, но мистическим образом воскрес, и родной клан изгнал его. Учителем Маклауда стал испанский дворянин, объяснивший, что он принадлежит к бессмертной расе воинов, которых можно лишить жизни, лишь обезглавив мечом…
Сражение между Маклаудом и его вечным врагом Курганом, начавшееся в Шотландии XVI века, продолжается в современном Манхеттене. От исхода этой битвы зависит судьба всех смертных. Это часть дуэли, продолжающейся веками.

Автор рипа: Sem-te
Релиз от:
Качество видео: BDRip-AVC
Формат видео: MKV
Видео: 800x432 (1.85:1), 23,976 fps, MPEG-4 AVC ~1595 kbps avg, 0.192 bit/pixel
Аудио: 48 kHz, AC3 Dolby Digital, 2/0 (L,R) ch, ~192 kbps
Формат субтитров: softsub (SRT)
General
Unique ID : 210088154637725419391595264801345866451 (0x9E0D81BD7FE8EA14A6E19F6F9E1F8AD3)
Format : Matroska
Format version : Version 2
File size : 1.46 GiB
Duration : 1h 56mn
Overall bit rate : 1 789 Kbps
Encoded date : UTC 2016-08-09 10:02:02
Writing application : mkvmerge v7.8.0 ('River Man') 32bit built on Apr 3 2015 12:11:22
Writing library : libebml v1.3.1 + libmatroska v1.4.2
Video
ID : 1
Format : AVC
Format/Info : Advanced Video Codec
Format profile : High@L4.1
Format settings, CABAC : Yes
Format settings, ReFrames : 11 frames
Codec ID : V_MPEG4/ISO/AVC
Duration : 1h 56mn
Bit rate : 1 595 Kbps
Width : 800 pixels
Height : 432 pixels
Display aspect ratio : 1.85:1
Frame rate mode : Constant
Frame rate : 24.000 fps
Color space : YUV
Chroma subsampling : 4:2:0
Bit depth : 8 bits
Scan type : Progressive
Bits/(Pixel*Frame) : 0.192
Stream size : 1.27 GiB (87%)
Writing library : x264 core 146 r2538 121396c
Encoding settings : cabac=1 / ref=11 / deblock=1:-2:-1 / analyse=0x3:0x133 / me=umh / subme=11 / psy=1 / psy_rd=1.00:0.20 / mixed_ref=1 / me_range=32 / chroma_me=1 / trellis=2 / 8x8dct=1 / cqm=0 / deadzone=21,11 / fast_pskip=1 / chroma_qp_offset=-3 / threads=3 / lookahead_threads=1 / sliced_threads=0 / nr=0 / decimate=1 / interlaced=0 / bluray_compat=0 / constrained_intra=0 / bframes=11 / b_pyramid=2 / b_adapt=2 / b_bias=0 / direct=3 / weightb=1 / open_gop=0 / weightp=2 / keyint=250 / keyint_min=24 / scenecut=40 / intra_refresh=0 / rc_lookahead=60 / rc=2pass / mbtree=1 / bitrate=1595 / ratetol=1.0 / qcomp=0.60 / qpmin=0 / qpmax=69 / qpstep=4 / cplxblur=20.0 / qblur=0.5 / ip_ratio=1.40 / aq=1:1.00
Default : Yes
Forced : No
Audio
ID : 2
Format : AC-3
Format/Info : Audio Coding 3
Mode extension : CM (complete main)
Format settings, Endianness : Big
Codec ID : A_AC3
Duration : 1h 56mn
Bit rate mode : Constant
Bit rate : 192 Kbps
Channel(s) : 2 channels
Channel positions : Front: L R
Sampling rate : 48.0 KHz
Bit depth : 16 bits
Compression mode : Lossy
Stream size : 160 MiB (11%)
Title : MVO (СТС)
Language : Russian
Default : Yes
Forced : No
Text #1
ID : 3
Format : UTF-8
Codec ID : S_TEXT/UTF8
Codec ID/Info : UTF-8 Plain Text
Language : Russian
Default : No
Forced : No
Text #2
ID : 4
Format : UTF-8
Codec ID : S_TEXT/UTF8
Codec ID/Info : UTF-8 Plain Text
Language : English
Default : No
Forced : No





   Похожие торренты   Торрент   Размер 
В этой теме нет новых непрочитанных сообщений. Горец 3: Последнее измерение / Горец 3: Чародей / Highlander III: The Sorcerer / Highlander III: The Final Dimension (1994) BDRip от HQCLUB

383 | 23

1.45 ГБ

В этой теме нет новых непрочитанных сообщений. Горец / Highlander (1986) BDRip AVC by msltel

41 | 18

5.09 ГБ

В этой теме нет новых непрочитанных сообщений. Горец / Highlander (1986) BDRip 720p by msltel

88 | 14

7.51 ГБ

В этой теме нет новых непрочитанных сообщений. Горец / Highlander (1986) BDRip | P | Режиссерская версия

82 | 3

2.14 ГБ

В этой теме нет новых непрочитанных сообщений. Горец / Highlander (1986) BDRip 1080p | P, A | Remastered

40 | 15

12.77 ГБ

В этой теме нет новых непрочитанных сообщений. Горец / Highlander (1986) BDRemux 1080p | P, A

17 | 4

24.39 ГБ

В этой теме нет новых непрочитанных сообщений. Горец / Highlander (1986) HDRip от Scarabey | Режиссерская версия

280 | 39

1.45 ГБ




Вы не можете начинать темы
Вы не можете отвечать на сообщения
Вы не можете редактировать свои сообщения
Вы не можете удалять свои сообщения
Вы не можете добавлять вложения

Перейти:  
Для Мосгорсуда, Роскомнадзора и рекламодателей: mosgorsud-torrent[собачка]yandex.ru
 Вход
ppkBB3cker v.2 © 2008-2014 @ PPK
[ Time : 0.033s | 17 Queries | GZIP : Off ]

Торрент трекер RS-torrent.com
cron