img image001 image001 image001 image001 image001 image001 image001 image001 image001 image001 image001 image001 image001 image001 image001 image001
Planets Sun Sun Sun
Статистика раздачи
Автор: PriZraK | Размер: 2.18 ГБ | Добавлен: 09 дек 2016
Раздают: 14    Качают: 0
Скачать торрент
Скачать торрент

СообщениеДобавлено: 09 дек 2016 




Информация о фильме
Название: 31-й км
Оригинальное название: KM 31: Kilometro 31
Год выхода: 2006
Жанр: ужасы
Режиссер: Ригоберто Кастаньеда
В ролях: Илиана Фокс, Адрия Колладо, Рауль Мендез, Джулиан Алварез, Карлос Арагон, Everardo Arzate, Жизелль Одри, Фернандо Бесерриль, Моника Беджарано, Izmir Gallardo
О фильме:
Молодая мексиканка Агата возвращалась ночью домой, когда перед ней возникла фигура обнаженного мальчика. Девушка вышла из машины, чтобы посмотреть на ребенка, но в тот же миг была сбита проезжавшим мимо грузовиком. Ментальный крик о помощи был услышан ее сестрой-близнецом Каталиной, которая мгновенно приехала на место трагедии и доставила пострадавшую сестру в клинику.
Агате ампутируют обе ноги и отправляют в палату для безнадежно больных. Сестра Агаты и ее бойфренд Омар тяжело переживают трагедию и решают любой ценой разобраться в случившемся. В первую очередь, раскрыть тайну, связанную со старым дорожным знаком “31-й километр”, у которого все и произошло…

Страна: Испания, Мексика
Продолжительность: 01:40:39
Перевод: Профессиональный (многоголосый)
Файл
Кодек: H.264
Качество: DVDRip-AVC (исх - DVD-9)
Видео: High@L4.1, 1024x436; ~2653 Кбит/сек; 25,000 кадров/сек
Звук: AC3; 448 Кбит/сек; 48,0 КГц; 16 бит; 6 каналов


General
Unique ID : 132734354429585699747701764578325283942 (0x63DBB4EFD3F761A55D2AFE98F7B3C466)
Complete name : E:31-й км.(2006).DVDRIP-AVC.P.[-=DoMiNo=-].mkv
Format : Matroska
Format version : Version 4 / Version 2
File size : 2.18 GiB
Duration : 1 h 40 min
Overall bit rate : 3 103 kb/s
Movie name : 31-й км
Deion : Молодая мексиканка Агата возвращалась ночью домой, когда перед ней возникла фигура обнаженного мальчика. Девушка вышла из машины, чтобы посмотреть на ребенка, но в тот же миг была сбита проезжавшим мимо грузовиком. Ментальный крик о помощи был услышан ее сестрой-близнецом Каталиной, которая мгновенно приехала на место трагедии и доставила пострадавшую сестру в клинику. / / Агате ампутируют обе ноги и отправляют в палату для безнадежно больных. Сестра Агаты и ее бойфренд Омар тяжело переживают трагедию и решают любой ценой разобраться в случившемся. В первую очередь, раскрыть тайну, связанную со старым дорожным знаком “31-й километр”, у которого все и произошло…
Writing application : XviD4PSP 7.0.331 DAILY
Writing library : Lavf57.41.100 / Lavf57.41.100
ACTORS : Илиана Фокс, Адрия Колладо, Рауль Мендез, Джулиан Алварез, Карлос Арагон, Everardo Arzate, Жизелль Одри, Фернандо Бесерриль, Моника Беджарано, Izmir Gallardo
COUNTRY : Испания, Мексика
DATE : 2006
DIRECTOR : Ригоберто Кастаньеда
ENCODING_INFO : DVD > MKV Произвольный / MPEG2 > X264 VBR-2P 2653kbps Произвольный / AC3 > COPY
GENRE : ужасы
IMDB_RATING : 5.3
ORIGINAL_TITLE : KM 31: Kilometro 31
RATING : 5.28
Video
ID : 1
Format : AVC
Format/Info : Advanced Video Codec
Format profile : High@L4.1
Format settings, CABAC : Yes
Format settings, ReFrames : 12 frames
Codec ID : V_MPEG4/ISO/AVC
Duration : 1 h 40 min
Bit rate : 2 653 kb/s
Width : 1 024 pixels
Height : 436 pixels
Display aspect ratio : 2.35:1
Frame rate mode : Constant
Frame rate : 25.000 FPS
Color space : YUV
Chroma subsampling : 4:2:0
Bit depth : 8 bits
Scan type : Progressive
Bits/(Pixel*Frame) : 0.238
Stream size : 1.82 GiB (84%)
Title : RIP_[-=DoMiNo=-]
Writing library : x264 core 148 r2744M b97ae06
Encoding settings : cabac=1 / ref=12 / deblock=1:-3:-3 / analyse=0x3:0x133 / me=umh / subme=11 / psy=1 / psy_rd=1.00:0.10 / mixed_ref=1 / me_range=32 / chroma_me=1 / trellis=2 / 8x8dct=1 / cqm=0 / deadzone=21,11 / fast_pskip=0 / chroma_qp_offset=-3 / threads=5 / lookahead_threads=1 / sliced_threads=0 / nr=0 / decimate=1 / interlaced=0 / bluray_compat=0 / constrained_intra=0 / bframes=12 / b_pyramid=2 / b_adapt=2 / b_bias=0 / direct=3 / weightb=1 / open_gop=0 / weightp=2 / keyint=250 / keyint_min=25 / scenecut=40 / intra_refresh=0 / rc=2pass / mbtree=0 / bitrate=2653 / ratetol=1.0 / qcomp=0.60 / qpmin=0 / qpmax=69 / qpstep=4 / cplxblur=20.0 / qblur=0.5 / ip_ratio=1.40 / pb_ratio=1.30 / aq=1:1.00
Default : Yes
Forced : No
DURATION : 01:40:39.880000000
Audio
ID : 2
Format : AC-3
Format/Info : Audio Coding 3
Mode extension : CM (complete main)
Format settings, Endianness : Big
Codec ID : A_AC3
Duration : 1 h 40 min
Bit rate mode : Constant
Bit rate : 448 kb/s
Channel(s) : 6 channels
Channel positions : Front: L C R, Side: L R, LFE
Sampling rate : 48.0 kHz
Frame rate : 31.250 FPS (1536 spf)
Bit depth : 16 bits
Compression mode : Lossy
Stream size : 323 MiB (14%)
Title : RUS_P_448kb/s_6ch
Language : Russian
Default : Yes
Forced : No
DURATION : 01:40:39.680000000
Menu
00:00:00.000 : :Глава 1
00:08:40.320 : :Глава 2
00:15:16.360 : :Глава 3
00:21:22.840 : :Глава 4
00:29:28.240 : :Глава 5
00:36:41.600 : :Глава 6
00:45:08.080 : :Глава 7
00:56:04.480 : :Глава 8
01:01:11.920 : :Глава 9
01:10:23.040 : :Глава 10
01:19:30.400 : :Глава 11
01:31:29.840 : :Глава 12





   Похожие торренты   Торрент   Размер 
В этой теме нет новых непрочитанных сообщений. 31-й км / KM 31: Kilometro 31 (2006) DVDRip | P

13 | 0

1.44 ГБ

В этой теме нет новых непрочитанных сообщений. 31-й км / KM 31: Kilometro 31 (2006) DVDRip-AVC

4 | 0

1.44 ГБ

В этой теме нет новых непрочитанных сообщений. 31-й километр / Kilometro 31 (2006) DVDRip от Brazzass

317 | 26

2.05 ГБ

В этой теме нет новых непрочитанных сообщений. Хоттабыч / }{отт@бь)ч (2006) DVDRip-AVC

132 | 36

2.09 ГБ

В этой теме нет новых непрочитанных сообщений. Травести (2006) DVDRip

13 | 3

1.19 ГБ

В этой теме нет новых непрочитанных сообщений. Алька [01-04 из 04] (2006) DVDRip-AVC

852 | 180

2.9 ГБ

В этой теме нет новых непрочитанных сообщений. Хоттабыч / }{отт@бь)ч (2006) DVDRip | КПК

61 | 11

349.27 МБ




Вы не можете начинать темы
Вы не можете отвечать на сообщения
Вы не можете редактировать свои сообщения
Вы не можете удалять свои сообщения
Вы не можете добавлять вложения

Перейти:  
Для Мосгорсуда, Роскомнадзора и рекламодателей: mosgorsud-torrent[собачка]yandex.ru
 Вход
ppkBB3cker v.2 © 2008-2014 @ PPK
[ Time : 0.026s | 18 Queries | GZIP : Off ]

Торрент трекер RS-torrent.com
cron