img image001 image001 image001 image001 image001 image001 image001 image001 image001 image001 image001 image001 image001 image001 image001 image001
Planets Sun Sun Sun
Статистика раздачи
Автор: PriZraK | Размер: 1.44 ГБ | Добавлен: 09 дек 2016
Раздают: 13    Качают: 0
Скачать торрент
Скачать торрент

СообщениеДобавлено: 09 дек 2016 




Информация о фильме
Название: 31-й км
Оригинальное название: KM 31: Kilometro 31
Год выхода: 2006
Жанр: ужасы
Режиссер: Ригоберто Кастаньеда
В ролях: Илиана Фокс, Адрия Колладо, Рауль Мендез, Джулиан Алварез, Карлос Арагон, Everardo Arzate, Жизелль Одри, Фернандо Бесерриль, Моника Беджарано, Izmir Gallardo
О фильме:
Молодая мексиканка Агата возвращалась ночью домой, когда перед ней возникла фигура обнаженного мальчика. Девушка вышла из машины, чтобы посмотреть на ребенка, но в тот же миг была сбита проезжавшим мимо грузовиком. Ментальный крик о помощи был услышан ее сестрой-близнецом Каталиной, которая мгновенно приехала на место трагедии и доставила пострадавшую сестру в клинику.
Агате ампутируют обе ноги и отправляют в палату для безнадежно больных. Сестра Агаты и ее бойфренд Омар тяжело переживают трагедию и решают любой ценой разобраться в случившемся. В первую очередь, раскрыть тайну, связанную со старым дорожным знаком “31-й километр”, у которого все и произошло…

Страна: Испания, Мексика
Продолжительность: 01:40:39
Перевод: Профессиональный (многоголосый)
Файл
Кодек: XviD
Качество: DVDRip (исх - DVD-9)
Видео: XviD 73, 720x304; ~1596 Кбит/сек; 25,000 кадров/сек
Звук: AC3; 448 Кбит/сек; 48,0 КГц; 16 бит; 6 каналов


General
Complete name : D:31-й км.(2006).DVDRIP.P.[-=DoMiNo=-].avi
Format : AVI
Format/Info : Audio Video Interleave
File size : 1.44 GiB
Duration : 1 h 40 min
Overall bit rate : 2 054 kb/s
Writing library : VirtualDub build 35491/release
Video
ID : 0
Format : MPEG-4 Visual
Format profile : Advanced Simple@L5
Format settings, BVOP : 2
Format settings, QPel : No
Format settings, GMC : No warppoints
Format settings, Matrix : Custom
Muxing mode : Packed bitstream
Codec ID : XVID
Codec ID/Hint : XviD
Duration : 1 h 40 min
Bit rate : 1 596 kb/s
Width : 720 pixels
Height : 304 pixels
Display aspect ratio : 2.35:1
Frame rate : 25.000 FPS
Color space : YUV
Chroma subsampling : 4:2:0
Bit depth : 8 bits
Scan type : Progressive
Compression mode : Lossy
Bits/(Pixel*Frame) : 0.292
Stream size : 1.12 GiB (78%)
Writing library : XviD 73
Audio
ID : 1
Format : AC-3
Format/Info : Audio Coding 3
Mode extension : CM (complete main)
Format settings, Endianness : Big
Codec ID : 2000
Duration : 1 h 40 min
Bit rate mode : Constant
Bit rate : 448 kb/s
Channel(s) : 6 channels
Channel positions : Front: L C R, Side: L R, LFE
Sampling rate : 48.0 kHz
Frame rate : 31.250 FPS (1536 spf)
Bit depth : 16 bits
Compression mode : Lossy
Stream size : 323 MiB (22%)
Alignment : Aligned on interleaves
Interleave, duration : 40 ms (1.00 video frame)
Interleave, preload duratio : 512 ms





   Похожие торренты   Торрент   Размер 
В этой теме нет новых непрочитанных сообщений. 31-й км / KM 31: Kilometro 31 (2006) DVDRip-AVC

14 | 0

2.18 ГБ

В этой теме нет новых непрочитанных сообщений. 31-й км / KM 31: Kilometro 31 (2006) DVDRip-AVC

4 | 0

1.44 ГБ

В этой теме нет новых непрочитанных сообщений. 31-й километр / Kilometro 31 (2006) DVDRip от Brazzass

317 | 26

2.05 ГБ

В этой теме нет новых непрочитанных сообщений. Хоттабыч / }{отт@бь)ч (2006) DVDRip-AVC

132 | 36

2.09 ГБ

В этой теме нет новых непрочитанных сообщений. Травести (2006) DVDRip

13 | 3

1.19 ГБ

В этой теме нет новых непрочитанных сообщений. Алька [01-04 из 04] (2006) DVDRip-AVC

852 | 180

2.9 ГБ

В этой теме нет новых непрочитанных сообщений. Хоттабыч / }{отт@бь)ч (2006) DVDRip | КПК

61 | 11

349.27 МБ




Вы не можете начинать темы
Вы не можете отвечать на сообщения
Вы не можете редактировать свои сообщения
Вы не можете удалять свои сообщения
Вы не можете добавлять вложения

Перейти:  
Для Мосгорсуда, Роскомнадзора и рекламодателей: mosgorsud-torrent[собачка]yandex.ru
 Вход
ppkBB3cker v.2 © 2008-2014 @ PPK
[ Time : 0.027s | 16 Queries | GZIP : Off ]

Торрент трекер RS-torrent.com
cron