img image001 image001 image001 image001 image001 image001 image001 image001 image001 image001 image001 image001 image001 image001 image001 image001
Planets Sun Sun Sun
Статистика раздачи
Автор: Nickolas3434 | Размер: 3.1 ГБ | Добавлен: 26 янв 2017
Раздают: 27    Качают: 4
Скачать торрент
Скачать торрент

СообщениеДобавлено: 26 янв 2017 


Информация о фильме
Название: Возвращение Фантоцци
Оригинальное название: Fantozzi - Il ritorno
Год выхода: 1996
Жанр: Комедия
Режиссер: Нери Паренти
В ролях: Паоло Вилладжо, Джиджи Редер, Милена Вукотич, Анна Маццамауро, Маурицио Антонини, Анджело Бернабуччи, Тонни Бреннеро, Акилле Бруньини, Альберто Кольянни, Джанни Франко, Джулиано Гизелли, Биг Джимми, Мария Кристина Мака, Джулио Массимини, Маурицио Маттиоли, Уолтер Нудо, Паоло Паолони
О фильме:
Уго Фантоцци изгоняют из Рая. Пока там подготовят ему подходящее место, Фантоцци вновь придется пожить на Земле. Но он не может без приключений. Вместе с ним вы побываете в японском ресторане, отпразднуете Новый Год, покатаетесь на лыжах. В этой серии много и других событий: внучку Фантоцци похищают, требуя выкуп, и наш герой бросается на ее поиски; Фантоцци наговаривает в сексе по телефону огромные суммы; синьора Сильвани хочет сделать пластическую операцию и под видом беременной от Фантоцци требует у него денег; бухгалтера сажают в тюрьму…

Страна: Италия
Студия: Cecchi Gori Group Tiger Cinematografica, Italian International Film
Продолжительность: 01:36:38
Перевод: Профессиональный многоголосый, профессиональный одноголосый
Файл
Кодек: h.264
Качество: DVDRip
Видео: MPEG-4 AVC, 720x552, 3700 Кбит/с, 25.000 кадр/с
Звук:
Аудио #1: Русский ( AC3, 2ch, 224 Кбит/с, 48.0 KHz) Профессиональный многоголосый [100ТВ]
Аудио #2: Русский ( AC3, 2ch, 224 Кбит/с, 48.0 KHz) Любительский (одноголосый закадровый)
Аудио #3: Итальянский ( AC3, 2ch, 224 Кбит/с, 48.0 KHz)
Аудио #4: Чешский ( AC3, 2ch, 224 Кбит/с, 48.0 KHz)

General
Unique ID : 242298881430828080670308424274862833683 (0xB649112F0871CB618D798710C5068013)
Complete name : Fantozzi.Il.Ritorno.DVDRip-AVC.mkv
Format : Matroska
Format version : Version 4 / Version 2
File size : 3.10 GiB
Duration : 1 h 36 min
Overall bit rate : 4 599 kb/s
Encoded date : UTC 2017-01-24 09:54:12
Writing application : mkvmerge v7.8.0 ('River Man') 64bit built on Mar 27 2015 16:31:37
Writing library : libebml v1.3.1 + libmatroska v1.4.2
Cover : Yes
Attachments : cover.jpg
Video
ID : 1
Format : AVC
Format/Info : Advanced Video Codec
Format profile : High@L4.1
Format settings, CABAC : Yes
Format settings, ReFrames : 12 frames
Codec ID : V_MPEG4/ISO/AVC
Duration : 1 h 36 min
Bit rate : 3 700 kb/s
Width : 720 pixels
Height : 552 pixels
Display aspect ratio : 4:3
Frame rate mode : Constant
Frame rate : 25.000 FPS
Color space : YUV
Chroma subsampling : 4:2:0
Bit depth : 8 bits
Scan type : Progressive
Bits/(Pixel*Frame) : 0.372
Stream size : 2.50 GiB (80%)
Title : Video
Writing library : x264 core 146 r2538 121396c
Encoding settings : cabac=1 / ref=12 / deblock=1:-3:-3 / analyse=0x3:0x113 / me=umh / subme=11 / psy=1 / psy_rd=1.00:0.00 / mixed_ref=1 / me_range=32 / chroma_me=1 / trellis=2 / 8x8dct=1 / cqm=0 / deadzone=21,11 / fast_pskip=1 / chroma_qp_offset=-2 / threads=6 / lookahead_threads=1 / sliced_threads=0 / nr=0 / decimate=1 / interlaced=0 / bluray_compat=0 / constrained_intra=0 / bframes=12 / b_pyramid=2 / b_adapt=2 / b_bias=0 / direct=3 / weightb=1 / open_gop=0 / weightp=2 / keyint=250 / keyint_min=23 / scenecut=40 / intra_refresh=0 / rc_lookahead=70 / rc=2pass / mbtree=1 / bitrate=3700 / ratetol=1.0 / qcomp=0.60 / qpmin=0 / qpmax=69 / qpstep=4 / cplxblur=20.0 / qblur=0.5 / ip_ratio=1.40 / aq=1:1.00
Language : Italian
Default : Yes
Forced : No
Audio #1
ID : 2
Format : AC-3
Format/Info : Audio Coding 3
Mode extension : CM (complete main)
Format settings, Endianness : Big
Codec ID : A_AC3
Duration : 1 h 36 min
Bit rate mode : Constant
Bit rate : 224 kb/s
Channel(s) : 2 channels
Channel positions : Front: L R
Sampling rate : 48.0 kHz
Frame rate : 31.250 FPS (1536 spf)
Bit depth : 16 bits
Compression mode : Lossy
Stream size : 155 MiB (5%)
Title : Профессиональный (многоголосый закадровый) 100ТВ
Language : Russian
Default : Yes
Forced : No
Audio #2
ID : 3
Format : AC-3
Format/Info : Audio Coding 3
Mode extension : CM (complete main)
Format settings, Endianness : Big
Codec ID : A_AC3
Duration : 1 h 36 min
Bit rate mode : Constant
Bit rate : 224 kb/s
Channel(s) : 2 channels
Channel positions : Front: L R
Sampling rate : 48.0 kHz
Frame rate : 31.250 FPS (1536 spf)
Bit depth : 16 bits
Compression mode : Lossy
Stream size : 155 MiB (5%)
Title : Любительский (одноголосый закадровый)
Language : Russian
Default : No
Forced : No
Audio #3
ID : 4
Format : AC-3
Format/Info : Audio Coding 3
Mode extension : CM (complete main)
Format settings, Endianness : Big
Codec ID : A_AC3
Duration : 1 h 36 min
Bit rate mode : Constant
Bit rate : 224 kb/s
Channel(s) : 2 channels
Channel positions : Front: L R
Sampling rate : 48.0 kHz
Frame rate : 31.250 FPS (1536 spf)
Bit depth : 16 bits
Compression mode : Lossy
Stream size : 155 MiB (5%)
Language : Italian
Default : No
Forced : No
Audio #4
ID : 5
Format : AC-3
Format/Info : Audio Coding 3
Mode extension : CM (complete main)
Format settings, Endianness : Big
Codec ID : A_AC3
Duration : 1 h 36 min
Bit rate mode : Constant
Bit rate : 224 kb/s
Channel(s) : 2 channels
Channel positions : Front: L R
Sampling rate : 48.0 kHz
Frame rate : 31.250 FPS (1536 spf)
Bit depth : 16 bits
Compression mode : Lossy
Stream size : 155 MiB (5%)
Language : Czech
Default : No
Forced : No














   Похожие торренты   Торрент   Размер 
В этой теме нет новых непрочитанных сообщений. Возвращение Фантоцци / Fantozzi - Il ritorno (1996) HDTVRip 720р | P, L1

25 | 11

4.49 ГБ

В этой теме нет новых непрочитанных сообщений. Фантоцци / Fantozzi (1975) DVDRip-AVC | P

153 | 6

3.54 ГБ

В этой теме нет новых непрочитанных сообщений. Фантоцци в раю / Fantozzi in paradiso (1993) DVDRip - AVC | P

33 | 2

3.07 ГБ

В этой теме нет новых непрочитанных сообщений. Фантоцци уходит на пенсию / Fantozzi va in pensione (1988) DVDRip-AVC | P

27 | 0

3.64 ГБ

В этой теме нет новых непрочитанных сообщений. Фантоцци берет реванш / Fantozzi alla riscossa (1990) DVDRip - AVC | P

42 | 6

3.34 ГБ

В этой теме нет новых непрочитанных сообщений. Второй трагический Фантоцци / Il secondo tragico Fantozzi (1976) DVDRip-AVC | P

33 | 5

3.68 ГБ

В этой теме нет новых непрочитанных сообщений. У Фантоцци опять неприятности / Fantozzi subisce ancora (1983) DVDRip-AVC | P

59 | 5

3.4 ГБ




Вы не можете начинать темы
Вы не можете отвечать на сообщения
Вы не можете редактировать свои сообщения
Вы не можете удалять свои сообщения
Вы не можете добавлять вложения

Перейти:  
Для Мосгорсуда, Роскомнадзора и рекламодателей: mosgorsud-torrent[собачка]yandex.ru
 Вход
ppkBB3cker v.2 © 2008-2014 @ PPK
[ Time : 0.140s | 17 Queries | GZIP : Off ]

Торрент трекер RS-torrent.com
cron