img image001 image001 image001 image001 image001 image001 image001 image001 image001 image001 image001 image001 image001 image001 image001 image001
Planets Sun Sun Sun
Статистика раздачи
Автор: PriZraK | Размер: 3.54 ГБ | Добавлен: 28 янв 2017
Раздают: 153    Качают: 6
Скачать торрент
Скачать торрент

СообщениеДобавлено: 28 янв 2017 


Информация о фильме
Название: Фантоцци
Оригинальное название: Fantozzi
Год выхода: 1975
Жанр: Комедия
Режиссер: Лучано Сальче
В ролях: Паоло Вилладжо, Милена Вукотич, Джиджи Редер, Камилло Милли, Пол Мюллер, Плинио Фернандо, Гуэррино Кривелло, Анджело Пеллегрино, Пьетро Дзардини, Диего Абатантуоно, Джузеппе Анатрелли
О фильме:
Уго Фантоцци всю жизнь работает младшим бухгалтером, ездит на работу в автобусе, никогда не изменял жене. Начальство ни разу не повысило ему зарплату, женщины его не замечают, а коллеги не помнят, как его зовут. В самом начале первого фильма о недотепе жена звонит ему на работу, так как его нет дома уже 17-ый день, но никто даже не заметил его отсутствия. Оказывается, его случайно замуровали в отсеке старых лифтов. Зритель узнает Уго, его семью, коллег по работе, о его любви к синьорине Сильвани. Настоящий цирк устраивает он в японском ресторане, а Новый Год, проведенный с Уго, не забудется никогда…

Страна: Италия
Студия: Rizzoli Film S.P.A.
Продолжительность: 01:37:12
Перевод: Профессиональный многоголосый
Файл
Кодек: h.264
Качество: DVDRip
Видео: MPEG-4 AVC, 720x400, 4700 Кбит/с, 25.000 кадр/с
Звук:
Аудио #1: Русский ( AC3, 2ch, 256 Кбит/с, 48.0 KHz) Профессиональный многоголосый (закадровый)
Аудио #2: Итальянский ( AC3, 1ch, 256 Кбит/с, 48.0 KHz)
Семпл

General
Unique ID : 189221596215976846743695686622163711700 (0x8E5AC0FADA516443B3D90388350B36D4)
Complete name : Fantozzi.1975.DVDRip-AVC.mkv
Format : Matroska
Format version : Version 4 / Version 2
File size : 3.54 GiB
Duration : 1 h 37 min
Overall bit rate : 5 215 kb/s
Encoded date : UTC 2017-01-27 09:42:49
Writing application : mkvmerge v7.8.0 ('River Man') 64bit built on Mar 27 2015 16:31:37
Writing library : libebml v1.3.1 + libmatroska v1.4.2
Cover : Yes
Attachments : cover.jpg
Video
ID : 1
Format : AVC
Format/Info : Advanced Video Codec
Format profile : High@L4.1
Format settings, CABAC : Yes
Format settings, ReFrames : 12 frames
Codec ID : V_MPEG4/ISO/AVC
Duration : 1 h 37 min
Bit rate : 4 700 kb/s
Width : 720 pixels
Height : 400 pixels
Display aspect ratio : 16:9
Frame rate mode : Constant
Frame rate : 25.000 FPS
Color space : YUV
Chroma subsampling : 4:2:0
Bit depth : 8 bits
Scan type : Progressive
Bits/(Pixel*Frame) : 0.653
Stream size : 3.19 GiB (90%)
Title : Video
Writing library : x264 core 146 r2538 121396c
Encoding settings : cabac=1 / ref=12 / deblock=1:-3:-3 / analyse=0x3:0x113 / me=umh / subme=11 / psy=1 / psy_rd=1.00:0.00 / mixed_ref=1 / me_range=32 / chroma_me=1 / trellis=2 / 8x8dct=1 / cqm=0 / deadzone=21,11 / fast_pskip=1 / chroma_qp_offset=-2 / threads=6 / lookahead_threads=1 / sliced_threads=0 / nr=0 / decimate=1 / interlaced=0 / bluray_compat=0 / constrained_intra=0 / bframes=12 / b_pyramid=2 / b_adapt=2 / b_bias=0 / direct=3 / weightb=1 / open_gop=0 / weightp=2 / keyint=250 / keyint_min=23 / scenecut=40 / intra_refresh=0 / rc_lookahead=70 / rc=2pass / mbtree=1 / bitrate=4700 / ratetol=1.0 / qcomp=0.60 / qpmin=0 / qpmax=69 / qpstep=4 / cplxblur=20.0 / qblur=0.5 / ip_ratio=1.40 / aq=1:1.00
Language : Italian
Default : Yes
Forced : No
Audio #1
ID : 2
Format : AC-3
Format/Info : Audio Coding 3
Mode extension : CM (complete main)
Format settings, Endianness : Big
Codec ID : A_AC3
Duration : 1 h 37 min
Bit rate mode : Constant
Bit rate : 256 kb/s
Channel(s) : 2 channels
Channel positions : Front: L R
Sampling rate : 48.0 kHz
Frame rate : 31.250 FPS (1536 spf)
Bit depth : 16 bits
Compression mode : Lossy
Stream size : 178 MiB (5%)
Title : Профессиональный многоголосый
Language : Russian
Default : Yes
Forced : No
Audio #2
ID : 3
Format : AC-3
Format/Info : Audio Coding 3
Mode extension : CM (complete main)
Format settings, Endianness : Big
Codec ID : A_AC3
Duration : 1 h 37 min
Bit rate mode : Constant
Bit rate : 256 kb/s
Channel(s) : 1 channel
Channel positions : Front: C
Sampling rate : 48.0 kHz
Frame rate : 31.250 FPS (1536 spf)
Bit depth : 16 bits
Compression mode : Lossy
Stream size : 178 MiB (5%)
Language : Italian
Default : No
Forced : No




   Похожие торренты   Торрент   Размер 
В этой теме нет новых непрочитанных сообщений. Фантоцци в раю / Fantozzi in paradiso (1993) DVDRip - AVC | P

33 | 2

3.07 ГБ

В этой теме нет новых непрочитанных сообщений. Возвращение Фантоцци / Fantozzi - Il ritorno (1996) DVDRip - AVC | P, L

27 | 4

3.1 ГБ

В этой теме нет новых непрочитанных сообщений. Фантоцци уходит на пенсию / Fantozzi va in pensione (1988) DVDRip-AVC | P

27 | 0

3.64 ГБ

В этой теме нет новых непрочитанных сообщений. У Фантоцци опять неприятности / Fantozzi subisce ancora (1983) DVDRip-AVC | P

59 | 5

3.4 ГБ

В этой теме нет новых непрочитанных сообщений. Фантоцци против всех / Fantozzi contro tutti (1980) DVDRip-AVC | P

58 | 4

3.6 ГБ

В этой теме нет новых непрочитанных сообщений. Фантоцци берет реванш / Fantozzi alla riscossa (1990) DVDRip - AVC | P

42 | 6

3.34 ГБ

В этой теме нет новых непрочитанных сообщений. Второй трагический Фантоцци / Il secondo tragico Fantozzi (1976) DVDRip-AVC | P

33 | 5

3.68 ГБ




Вы не можете начинать темы
Вы не можете отвечать на сообщения
Вы не можете редактировать свои сообщения
Вы не можете удалять свои сообщения
Вы не можете добавлять вложения

Перейти:  
Для Мосгорсуда, Роскомнадзора и рекламодателей: mosgorsud-torrent[собачка]yandex.ru
 Вход
ppkBB3cker v.2 © 2008-2014 @ PPK
[ Time : 0.030s | 15 Queries | GZIP : Off ]

Торрент трекер RS-torrent.com
cron