img image001 image001 image001 image001 image001 image001 image001 image001 image001 image001 image001 image001 image001 image001 image001 image001
Planets Sun Sun Sun
Статистика раздачи
Автор: PriZraK | Размер: 3.6 ГБ | Добавлен: 29 янв 2017
Раздают: 58    Качают: 4
Скачать торрент
Скачать торрент

СообщениеДобавлено: 29 янв 2017 


Информация о фильме
Название: Фантоцци против всех
Оригинальное название: Fantozzi contro tutti
Год выхода: 1980
Жанр: Комедия
Режиссер: Нери Паренти, Паоло Вилладжо
В ролях: Паоло Вилладжо, Милена Вукотич, Джиджи Редер, Камилло Милли, Пол Мюллер, Плинио Фернандо, Гуэррино Кривелло, Анджело Пеллегрино, Пьетро Дзардини, Диего Абатантуоно, Джузеппе Анатрелли
О фильме:
Третий фильм о злоключениях бухгалтера Уго Фантоцци. К унижениям на работе, опять добавляются личные проблемы. Ночи, проведенные перед телевизором в поисках какого-нибудь эротического фильма... Забавная слежка за женой, увлеченной брутальным булочником. Существование туповатого Фантоцци - настоящая одиссея грустных, и в тоже время, необычайно смешных событий.

Страна: Италия
Студия: Maura International Films
Продолжительность: 01:33:34
Перевод: Профессиональный многоголосый
Файл
Кодек: h.264
Качество: DVDRip
Видео: MPEG-4 AVC, 720x392, 5000 Кбит/с, 25.000 кадр/с
Звук:
Аудио #1: Русский ( AC3, 2ch, 256 Кбит/с, 48.0 KHz) Профессиональный многоголосый (закадровый)
Аудио #2: Итальянский ( AC3, 1ch, 256 Кбит/с, 48.0 KHz)
Семпл

General
Unique ID : 229415099769772767644818189036781704641 (0xAC97BDB4697A98A3AC291E0A556E15C1)
Complete name : Fantozzi.Contro.Tutti.1980.DVDRip-AVC.mkv
Format : Matroska
Format version : Version 4 / Version 2
File size : 3.60 GiB
Duration : 1 h 33 min
Overall bit rate : 5 515 kb/s
Encoded date : UTC 2017-01-29 10:24:57
Writing application : mkvmerge v7.8.0 ('River Man') 64bit built on Mar 27 2015 16:31:37
Writing library : libebml v1.3.1 + libmatroska v1.4.2
Cover : Yes
Attachments : cover.jpg
Video
ID : 1
Format : AVC
Format/Info : Advanced Video Codec
Format profile : High@L4.1
Format settings, CABAC : Yes
Format settings, ReFrames : 12 frames
Codec ID : V_MPEG4/ISO/AVC
Duration : 1 h 33 min
Bit rate : 5 000 kb/s
Width : 720 pixels
Height : 392 pixels
Display aspect ratio : 1.85:1
Frame rate mode : Constant
Frame rate : 25.000 FPS
Color space : YUV
Chroma subsampling : 4:2:0
Bit depth : 8 bits
Scan type : Progressive
Bits/(Pixel*Frame) : 0.709
Stream size : 3.27 GiB (91%)
Title : Video
Writing library : x264 core 146 r2538 121396c
Encoding settings : cabac=1 / ref=12 / deblock=1:-3:-3 / analyse=0x3:0x113 / me=umh / subme=11 / psy=1 / psy_rd=1.00:0.00 / mixed_ref=1 / me_range=32 / chroma_me=1 / trellis=2 / 8x8dct=1 / cqm=0 / deadzone=21,11 / fast_pskip=1 / chroma_qp_offset=-2 / threads=6 / lookahead_threads=1 / sliced_threads=0 / nr=0 / decimate=1 / interlaced=0 / bluray_compat=0 / constrained_intra=0 / bframes=12 / b_pyramid=2 / b_adapt=2 / b_bias=0 / direct=3 / weightb=1 / open_gop=0 / weightp=2 / keyint=250 / keyint_min=23 / scenecut=40 / intra_refresh=0 / rc_lookahead=70 / rc=2pass / mbtree=1 / bitrate=5000 / ratetol=1.0 / qcomp=0.60 / qpmin=0 / qpmax=69 / qpstep=4 / cplxblur=20.0 / qblur=0.5 / ip_ratio=1.40 / aq=1:1.00
Language : Italian
Default : Yes
Forced : No
Audio #1
ID : 2
Format : AC-3
Format/Info : Audio Coding 3
Mode extension : CM (complete main)
Format settings, Endianness : Big
Codec ID : A_AC3
Duration : 1 h 33 min
Bit rate mode : Constant
Bit rate : 256 kb/s
Channel(s) : 2 channels
Channel positions : Front: L R
Sampling rate : 48.0 kHz
Frame rate : 31.250 FPS (1536 spf)
Bit depth : 16 bits
Compression mode : Lossy
Stream size : 171 MiB (5%)
Title : Профессиональный многоголосый (закадровый)
Language : Russian
Default : Yes
Forced : No
Audio #2
ID : 3
Format : AC-3
Format/Info : Audio Coding 3
Mode extension : CM (complete main)
Format settings, Endianness : Big
Codec ID : A_AC3
Duration : 1 h 33 min
Bit rate mode : Constant
Bit rate : 256 kb/s
Channel(s) : 1 channel
Channel positions : Front: C
Sampling rate : 48.0 kHz
Frame rate : 31.250 FPS (1536 spf)
Bit depth : 16 bits
Compression mode : Lossy
Stream size : 171 MiB (5%)
Language : Italian
Default : No
Forced : No




   Похожие торренты   Торрент   Размер 
В этой теме нет новых непрочитанных сообщений. Пиерино против всех / Pierino contro tutti / Desirable Teacher (1981) DVDRip | A

157 | 21

1.41 ГБ

В этой теме нет новых непрочитанных сообщений. Фантоцци / Fantozzi (1975) DVDRip-AVC | P

153 | 6

3.54 ГБ

В этой теме нет новых непрочитанных сообщений. Фантоцци в раю / Fantozzi in paradiso (1993) DVDRip - AVC | P

33 | 2

3.07 ГБ

В этой теме нет новых непрочитанных сообщений. Возвращение Фантоцци / Fantozzi - Il ritorno (1996) DVDRip - AVC | P, L

27 | 4

3.1 ГБ

В этой теме нет новых непрочитанных сообщений. Фантоцци уходит на пенсию / Fantozzi va in pensione (1988) DVDRip-AVC | P

27 | 0

3.64 ГБ

В этой теме нет новых непрочитанных сообщений. Фантоцци берет реванш / Fantozzi alla riscossa (1990) DVDRip - AVC | P

42 | 6

3.34 ГБ

В этой теме нет новых непрочитанных сообщений. Второй трагический Фантоцци / Il secondo tragico Fantozzi (1976) DVDRip-AVC | P

33 | 5

3.68 ГБ




Вы не можете начинать темы
Вы не можете отвечать на сообщения
Вы не можете редактировать свои сообщения
Вы не можете удалять свои сообщения
Вы не можете добавлять вложения

Перейти:  
Для Мосгорсуда, Роскомнадзора и рекламодателей: mosgorsud-torrent[собачка]yandex.ru
cron
 Вход
ppkBB3cker v.2 © 2008-2014 @ PPK
[ Time : 0.025s | 18 Queries | GZIP : Off ]

Торрент трекер RS-torrent.com
cron