img image001 image001 image001 image001 image001 image001 image001 image001 image001 image001 image001 image001 image001 image001 image001 image001
Planets Sun Sun Sun
Статистика раздачи
Автор: PriZraK | Размер: 8.99 ГБ | Добавлен: 04 фев 2017
Раздают: 20    Качают: 0
Скачать торрент
Скачать торрент

СообщениеДобавлено: 04 фев 2017 

Название: Наблюдатель
Оригинальное название: Le guetteur
Год выхода: 2012
Страна: Франция, Бельгия, Италия
Студия: Babe Film, Ran Entertainment, Climax Films
Продолжительность: 01:28:42
Жанр: боевик, триллер, криминал
Режиссер: Микеле Плачидо
В ролях: Даниель Отой, Матьё Кассовиц, Оливье Гурме, Франсис Рено, Николя Бриансон, Жером Пули, Виоланте Плачидо, Лука Арджентеро, Арли Жовер, Кристиан Эк, ...
Перевод:
- Профессиональный (многоголосный, закадровый) Первый канал
- Профессиональный (двухголосый, закадровый) НТВ+
- Любительский (одноголосый, закадровый) den904
- Субтитры
О фильме: Комиссар Маттеи уже несколько месяцев преследует банду грабителей банков. Во время очередного ограбления банду вот-вот накроют, но уйти бандитам помогает таинственный снайпер, без промаха ранящий полицейских. После анонимного звонка удаётся арестовать пресловутого снайпера, но тому удаётся бежать, чтобы вычислить предателя. Когда Маттеи узнаёт, что снайпер повинен в смерти его сына во время операции в Афганистане, дело становится личным…

Кодек: x264
Качество: BDRip 1080p
Видео: 1920x1080, 12000 kbps, 23,976 fps
Аудио #1: AC-3, 2 ch, 192 kbps (Rus) - MVO Первый канал
Аудио #2: AC-3, 2 ch, 192 kbps (Rus) - DVO НТВ+
Аудио #3: AC-3, 6 ch, 640 kbps (Rus) - VO den904
Аудио #4: DTS, 6 ch, 1509 kbps (Fre)
Субтитры: Русские, Английские
За исходник спасибо - arxivariys

x264 [info]: frame I:1050 Avg QP:13.84 size:235976
x264 [info]: frame P:30453 Avg QP:15.45 size:106627
x264 [info]: frame B:96084 Avg QP:17.11 size: 46585
x264 [info]: consecutive B-frames: 3.4% 3.5% 16.7% 11.9% 15.8% 41.6% 4.9% 0.7% 0.7% 0.5% 0.4%
Общее
Уникальный идентификатор : 237999609035398828599245151558774680899 (0xB30D0EB06A224D989D3B20403761ED43)
Полное имя : Наблюдатель (Le guetteur) 2012 BDRip 1080p.mkv
Формат : Matroska
Версия формата : Version 2
Размер файла : 8,99 Гбайт
Продолжительность : 1 ч. 28 м.
Общий поток : 14,5 Мбит/сек
Дата кодирования : UTC 2017-02-03 15:04:32
Программа кодирования : mkvmerge v4.0.0 ('The Stars were mine') сборка от Jun 6 2010 16:18:42
Библиотека кодирования : libebml v1.0.0 + libmatroska v1.0.0
Видео
Идентификатор : 1
Формат : AVC
Формат/Информация : Advanced Video Codec
Профиль формата : High@L4.1
Параметр CABAC формата : Да
Параметр ReFrames формата : 4 кадра
Идентификатор кодека : V_MPEG4/ISO/AVC
Продолжительность : 1 ч. 28 м.
Битрейт : 12,0 Мбит/сек
Ширина : 1920 пикселей
Высота : 1080 пикселей
Соотношение сторон : 16:9
Режим частоты кадров : Постоянный
Частота кадров : 23,976 (24000/1001) кадра/сек
Цветовое пространство : YUV
Субдискретизация насыщенности : 4:2:0
Битовая глубина : 8 бит
Тип развёртки : Прогрессивная
Бит/(Пиксели*Кадры) : 0.241
Размер потока : 7,25 Гбайт (81%)
Библиотека кодирования : x264 core 146 r2538 121396c
Настройки программы : cabac=1 / ref=4 / deblock=1:-3:-3 / analyse=0x3:0x133 / me=umh / subme=11 / psy=1 / psy_rd=1.00:0.00 / mixed_ref=1 / me_range=32 / chroma_me=1 / trellis=2 / 8x8dct=1 / cqm=0 / deadzone=21,11 / fast_pskip=0 / chroma_qp_offset=-2 / threads=12 / lookahead_threads=2 / sliced_threads=0 / nr=0 / decimate=0 / interlaced=0 / bluray_compat=0 / constrained_intra=0 / bframes=10 / b_pyramid=2 / b_adapt=2 / b_bias=0 / direct=3 / weightb=1 / open_gop=0 / weightp=2 / keyint=240 / keyint_min=23 / scenecut=40 / intra_refresh=0 / rc=2pass / mbtree=0 / bitrate=12000 / ratetol=1.0 / qcomp=0.60 / qpmin=0 / qpmax=69 / qpstep=4 / cplxblur=20.0 / qblur=0.5 / ip_ratio=1.40 / pb_ratio=1.30 / aq=1:0.80
Язык : French
Default : Нет
Forced : Нет
Аудио #1
Идентификатор : 2
Формат : AC-3
Формат/Информация : Audio Coding 3
Расширение режима : CM (complete main)
Параметр Endianness формата : Big
Идентификатор кодека : A_AC3
Продолжительность : 1 ч. 28 м.
Вид битрейта : Постоянный
Битрейт : 192 Кбит/сек
Каналы : 2 канала
Расположение каналов : Front: L R
Частота : 48,0 КГц
Частота кадров : 31,250 кадров/сек (1536 spf)
Метод сжатия : С потерями
Размер потока : 122 Мбайт (1%)
Заголовок : MVO Первый канал
Язык : Russian
Default : Нет
Forced : Нет
Аудио #2
Идентификатор : 3
Формат : AC-3
Формат/Информация : Audio Coding 3
Расширение режима : CM (complete main)
Параметр Endianness формата : Big
Идентификатор кодека : A_AC3
Продолжительность : 1 ч. 28 м.
Вид битрейта : Постоянный
Битрейт : 192 Кбит/сек
Каналы : 2 канала
Расположение каналов : Front: L R
Частота : 48,0 КГц
Частота кадров : 31,250 кадров/сек (1536 spf)
Метод сжатия : С потерями
Размер потока : 122 Мбайт (1%)
Заголовок : DVO НТВ+
Язык : Russian
Default : Нет
Forced : Нет
Аудио #3
Идентификатор : 4
Формат : AC-3
Формат/Информация : Audio Coding 3
Расширение режима : CM (complete main)
Параметр Endianness формата : Big
Идентификатор кодека : A_AC3
Продолжительность : 1 ч. 28 м.
Вид битрейта : Постоянный
Битрейт : 640 Кбит/сек
Каналы : 6 каналов
Расположение каналов : Front: L C R, Side: L R, LFE
Частота : 48,0 КГц
Частота кадров : 31,250 кадров/сек (1536 spf)
Метод сжатия : С потерями
Размер потока : 406 Мбайт (4%)
Заголовок : VO den904
Язык : Russian
Default : Нет
Forced : Нет
Аудио #4
Идентификатор : 5
Формат : DTS
Формат/Информация : Digital Theater Systems
Режим : 16
Параметр Endianness формата : Big
Идентификатор кодека : A_DTS
Продолжительность : 1 ч. 28 м.
Вид битрейта : Постоянный
Битрейт : 1509 Кбит/сек
Каналы : 6 каналов
Расположение каналов : Front: L C R, Side: L R, LFE
Частота : 48,0 КГц
Частота кадров : 93,750 кадра/сек (512 spf)
Битовая глубина : 24 бит
Метод сжатия : С потерями
Размер потока : 957 Мбайт (10%)
Язык : French
Default : Нет
Forced : Нет
Текст #1
Идентификатор : 6
Формат : UTF-8
Идентификатор кодека : S_TEXT/UTF8
Идентификатор кодека/Информация : UTF-8 Plain Text
Заголовок : Katya67 и MariaP
Язык : Russian
Default : Нет
Forced : Нет
Текст #2
Идентификатор : 7
Формат : UTF-8
Идентификатор кодека : S_TEXT/UTF8
Идентификатор кодека/Информация : UTF-8 Plain Text
Язык : English
Default : Нет
Forced : Нет





   Похожие торренты   Торрент   Размер 
В этой теме нет новых непрочитанных сообщений. Наблюдатель / Le guetteur (2012) BDRip 1080p | AUS Transfer | P, P2

24 | 1

6.71 ГБ

В этой теме нет новых непрочитанных сообщений. Наблюдатель / Сторож / Le guetteur (2012) BDRip от HQCLUB | AUS Transfer

425 | 23

1.45 ГБ

В этой теме нет новых непрочитанных сообщений. Наблюдатель / Le guetteur (2012) HDRip | P

150 | 13

735.41 МБ

В этой теме нет новых непрочитанных сообщений. Наблюдатель / The Watcher (2000) HDDVDRip 1080p от NovaLan

4 | 6

7.1 ГБ

В этой теме нет новых непрочитанных сообщений. Наблюдатель / The Watcher (2000) BDRemux 1080p от NovaLan

21 | 5

25.46 ГБ

В этой теме нет новых непрочитанных сообщений. Наблюдатель / The Watcher (2000) BDRip-AVC by msltel | D, P, A

56 | 2

3.28 ГБ

В этой теме нет новых непрочитанных сообщений. Наблюдатель / The Watcher (2000) BDRip 720p by msltel | D, P, A

42 | 4

5.03 ГБ




Вы не можете начинать темы
Вы не можете отвечать на сообщения
Вы не можете редактировать свои сообщения
Вы не можете удалять свои сообщения
Вы не можете добавлять вложения

Перейти:  
Для Мосгорсуда, Роскомнадзора и рекламодателей: mosgorsud-torrent[собачка]yandex.ru
 Вход
ppkBB3cker v.2 © 2008-2014 @ PPK
[ Time : 0.027s | 16 Queries | GZIP : Off ]

Торрент трекер RS-torrent.com
cron