img image001 image001 image001 image001 image001 image001 image001 image001 image001 image001 image001 image001 image001 image001 image001 image001
Planets Sun Sun Sun
Статистика раздачи
Автор: Nickolas3434 | Размер: 1.45 ГБ | Добавлен: 09 апр 2017
Раздают: 40    Качают: 13
Скачать торрент
Скачать торрент

СообщениеДобавлено: 09 апр 2017 

Производство: США / Канада, Cinetel Films
Жанр: Боевик
Продолжительность: 01:32:28
Перевод: Авторский (одноголосый, закадровый) Е.Гаевский - нецензурная лексика
Субтитры: Отсутствуют
Режиссер: Джефф Кинг
Актеры: Стивен Сигал, Холли Дигнард, Керин Мишель Бальтцер, Крис Томас Кинг, Филип Грэйнджер, Джерри Ректор, Марк Колли, Даниелла Евангелиста, Холли Эглингтон, Марси Т. Хаус
Описание:
Детектив Джекоб Стиллвелл (Стивен Сигал) - один из наиболее знаменитых детективов по убийствам в стране.Отчаянное преследование Лазерус, ведёт Стиллвелла в темный, развращенный Мемфисский преступный мир - мир сексуального и бессмысленного насилия...

Релиз от: K.E.N
Качество видео: HDRip-AVC
Видео: AVC/H.264, 1024x576 (16:9), 23.976 fps, 1 804 Kbps (0.128 bit/pixel)
Аудио: AC3, 6 ch, ~448 kbps
За перевод спасибо Переулку Переводмана!
Формат : Matroska
Версия формата : Version 2
Размер файла : 1,45 Гбайт
Продолжительность : 1 ч. 32 м.
Общий поток : 2246 Кбит/сек
Дата кодирования : UTC 2017-04-08 15:22:14
Программа кодирования : mkvmerge v5.3.0 ('I could have danced') built on Feb 9 2012 10:38:07
Библиотека кодирования : libebml v1.2.3 + libmatroska v1.3.0
Обложка : Yes
Attachments : cover.jpg
Видео
Идентификатор : 1
Формат : AVC
Формат/Информация : Advanced Video Codec
Профиль формата : High@L4.1
Параметр CABAC формата : Да
Параметр ReFrames формата : 10 кадров
Идентификатор кодека : V_MPEG4/ISO/AVC
Продолжительность : 1 ч. 32 м.
Битрейт : 1804 Кбит/сек
Ширина : 1024 пикселя
Высота : 576 пикселей
Соотношение сторон : 16:9
Режим частоты кадров : Постоянный
Частота кадров : 23,976 (24000/1001) кадра/сек
Цветовое пространство : YUV
Субдискретизация насыщенности : 4:2:0
Битовая глубина : 8 бит
Тип развёртки : Прогрессивная
Бит/(Пиксели*Кадры) : 0.128
Размер потока : 1,13 Гбайт (78%)
Библиотека кодирования : x264 core 146 r2538 121396c
Настройки программы : cabac=1 / ref=10 / deblock=1:-3:-3 / analyse=0x3:0x133 / me=umh / subme=11 / psy=1 / psy_rd=1.00:0.00 / mixed_ref=1 / me_range=32 / chroma_me=1 / trellis=2 / 8x8dct=1 / cqm=0 / deadzone=21,11 / fast_pskip=0 / chroma_qp_offset=-2 / threads=12 / lookahead_threads=2 / sliced_threads=0 / nr=0 / decimate=1 / interlaced=0 / bluray_compat=0 / constrained_intra=0 / bframes=8 / b_pyramid=2 / b_adapt=2 / b_bias=0 / direct=3 / weightb=1 / open_gop=0 / weightp=2 / keyint=240 / keyint_min=23 / scenecut=40 / intra_refresh=0 / rc=2pass / mbtree=0 / bitrate=1804 / ratetol=1.0 / qcomp=0.60 / qpmin=0 / qpmax=69 / qpstep=4 / cplxblur=20.0 / qblur=0.5 / ip_ratio=1.40 / pb_ratio=1.30 / aq=2:0.70
Default : Да
Forced : Нет
Аудио
Идентификатор : 2
Формат : AC-3
Формат/Информация : Audio Coding 3
Расширение режима : CM (complete main)
Параметр Endianness формата : Big
Идентификатор кодека : A_AC3
Продолжительность : 1 ч. 32 м.
Вид битрейта : Постоянный
Битрейт : 448 Кбит/сек
Каналы : 6 каналов
Расположение каналов : Front: L C R, Side: L R, LFE
Частота : 48,0 КГц
Частота кадров : 31,250 кадров/сек (1536 spf)
Битовая глубина : 16 бит
Метод сжатия : С потерями
Размер потока : 297 Мбайт (20%)
Заголовок : Авторский Е.Гаевский
Язык : Russian
Default : Да
Forced : Нет

Скриншоты:



   Похожие торренты   Торрент   Размер 
В этой теме нет новых непрочитанных сообщений. Дэдпул / Deadpool (2016) HDRip от NNMClub | Гаевский

410 | 20

1.46 ГБ

В этой теме нет новых непрочитанных сообщений. Жемчужина кунг-фу / Смертельный удар / Легендарный удар / Lang tzu yi chao / The Legendary Strike (1978) DVDRip от Scarabey | A

67 | 8

1.45 ГБ

В этой теме нет новых непрочитанных сообщений. Остаться в живых: Воскрешение / Fritt vilt 2 (2008) HDRip-AVC от NNMClub | P2, L1

139 | 88

2.61 ГБ

В этой теме нет новых непрочитанных сообщений. Вырваться из-под гнета (Смертельный удар) / Breakout from Oppression / Zui jia bo sha (1973) DVD5 | A

0 | 0

3.2 ГБ

В этой теме нет новых непрочитанных сообщений. Рубильник / Kill Switch (Тим Смит ) [2017, фантастика, боевик, BDRip-AVC] VO / Фантастика

101 | 14

1.45 ГБ

В этой теме нет новых непрочитанных сообщений. Поколение убийц / Generation Kill [S01] (2008) HDRip от Scarabey | P | С.Р.И.

182 | 72

7.14 ГБ

В этой теме нет новых непрочитанных сообщений. Мой друг – гей / Date and Switch (2014) HDRip | L1

1044 | 165

1.37 ГБ




Вы не можете начинать темы
Вы не можете отвечать на сообщения
Вы не можете редактировать свои сообщения
Вы не можете удалять свои сообщения
Вы не можете добавлять вложения

Перейти:  
Для Мосгорсуда, Роскомнадзора и рекламодателей: mosgorsud-torrent[собачка]yandex.ru
 Вход
ppkBB3cker v.2 © 2008-2014 @ PPK
[ Time : 0.205s | 16 Queries | GZIP : Off ]

Торрент трекер RS-torrent.com
cron