img image001 image001 image001 image001 image001 image001 image001 image001 image001 image001 image001 image001 image001 image001 image001 image001
Planets Sun Sun Sun
Статистика раздачи
Автор: Nickolas3434 | Размер: 1.45 ГБ | Добавлен: 22 авг 2017
Раздают: 101    Качают: 14
Скачать торрент
Скачать торрент

СообщениеДобавлено: 22 авг 2017 

Рубильник / Kill Switch


Перевод: Любительский (одноголосый) [BadBajo], субтитры: отсутствуют
Формат: BDRip-AVC, MKV, H.264, AC3
Страна: Нидерланды, Германия, США
Режиссер: Тим Смит
Жанр: фантастика, боевик
Продолжительность: 01:31:51
Год выпуска: 2017
В ролях: Дэн Стивенс, Беренис Марло, Чарити Уэйкфилд, Тиго Гернандт, Хлоя-Мэй Катхилл, Гийс Шолтен ван Ашат, Бас Кейзер, Дон Альфонсо, Мике Либанон, Майк Реус
Описание: Энергетическая компания «Альтерплекс» придумала, как получить доступ к неограниченной энергии. Для этих целей было построено устройство под названием Башня, которое получает энергию в чистом виде. Представители «Альтерплекса» нанимают бывшего астронавта Уилла для выполнения опасного задания.



Видео: 1032x432 (2.40:1), 23.976 fps, MPEG4 AVC (x264), ~1881 Kbps, 0.176 bit/pixel
Аудио: 48 kHz, AC3 Dolby Digital, 3/2 (L,C,R,l,r) + LFE ch, ~384 kbps avg
General
Unique ID : 219680844827366891476716166812332029960 (0xA544FDE1C383F76A81B661AD9BC97808)
Complete name : C:\Users\Юрик\Downloads\Рубильник (2017) BDRip-AVC_[tfile.ru].mkv
Format : Matroska
Format version : Version 2
File size : 1.45 GiB
Duration : 1h 31mn
Overall bit rate : 2 265 Kbps
Encoded date : UTC 2017-08-18 21:35:59
Writing application : mkvmerge v4.8.0 ('I Got The...') сборка от May 24 2011 03:12:58
Writing library : libebml v1.2.0 + libmatroska v1.1.0

Video
ID : 1
Format : AVC
Format/Info : Advanced Video Codec
Format profile :
Format settings, CABAC : Yes
Format settings, ReFrames : 12 frames
Codec ID : V_MPEG4/ISO/AVC
Duration : 1h 31mn
Bit rate : 1 881 Kbps
Width : 1 032 pixels
Height : 432 pixels
Display aspect ratio : 2.40:1
Frame rate mode : Constant
Frame rate : 23.976 fps
Color space : YUV
Chroma subsampling : 4:2:0
Bit depth : 8 bits
Scan type : Progressive
Bits/(Pixel*Frame) : 0.176
Stream size : 1.18 GiB (81%)
Writing library : x264 core 152 r2851kMod ba24899
Encoding settings : cabac=1 / ref=12 / deblock=1:-2:-2 / analyse=0x3:0x113 / me=umh / subme=10 / psy=1 / fade_compensate=0.00 / psy_rd=1.00:0.00 / mixed_ref=1 / me_range=32 / chroma_me=1 / trellis=2 / 8x8dct=1 / cqm=0 / deadzone=21,11 / fast_pskip=0 / chroma_qp_offset=-2 / threads=12 / lookahead_threads=3 / sliced_threads=0 / nr=0 / decimate=0 / interlaced=0 / bluray_compat=0 / constrained_intra=0 / bframes=11 / b_pyramid=2 / b_adapt=2 / b_bias=0 / direct=1 / weightb=1 / open_gop=0 / weightp=2 / keyint=240 / keyint_min=23 / scenecut=40 / intra_refresh=0 / rc_lookahead=60 / rc=2pass / mbtree=0 / bitrate=1881 / ratetol=1.0 / qcomp=0.60 / qpmin=0 / qpmax=69 / qpstep=4 / cplxblur=20.0 / qblur=0.5 / vbv_maxrate=50000 / vbv_bufsize=62500 / nal_hrd=none / filler=0 / ip_ratio=1.40 / pb_ratio=1.30 / aq=1:1.00
Default : Yes
Forced : No

Audio
ID : 2
Format : AC-3
Format/Info : Audio Coding 3
Mode extension : CM (complete main)
Format settings, Endianness : Big
Codec ID : A_AC3
Duration : 1h 31mn
Bit rate mode : Constant
Bit rate : 384 Kbps
Channel(s) : 6 channels
Channel positions : Front: L C R, Side: L R, LFE
Sampling rate : 48.0 KHz
Compression mode : Lossy
Stream size : 252 MiB (17%)
Title : BadBajo
Language : Russian
Default : Yes
Forced : No















   Похожие торренты   Торрент   Размер 
В этой теме нет новых непрочитанных сообщений. Восстание / Revolt (Джо Миэйл) [2017, фантастика, боевик, BDRip] DUB / Фантастика

116 | 10

1.46 ГБ

В этой теме нет новых непрочитанных сообщений. Защитники (Сарик Андреасян) [2017, фантастика, фэнтези, боевик, приключения, BDRip] / Фантастика

46 | 1

750.77 МБ

В этой теме нет новых непрочитанных сообщений. Лига справедливости / Justice League (Зак Снайдер) [2017, фантастика, фэнтези, боевик, приключения, BDRip] DUB / Фантастика

395 | 7

1.46 ГБ

В этой теме нет новых непрочитанных сообщений. Тор: Рагнарёк / Thor: Ragnarok (Тайка Вайтити) [2017, фантастика, боевик, комедия, приключения, BDRip-AVC] DUB / Фантастика

27 | 5

2.17 ГБ

В этой теме нет новых непрочитанных сообщений. Тор: Рагнарёк / Thor: Ragnarok (Тайка Вайтити) [2017, фантастика, боевик, комедия, приключения, BDRip] DUB / Фантастика

146 | 6

2.12 ГБ

В этой теме нет новых непрочитанных сообщений. Тор: Рагнарёк / Thor: Ragnarok (Тайка Вайтити) [2017, фантастика, боевик, комедия, приключения, BDRip-AVC] DUB+VO / Фантастика

29 | 8

2.91 ГБ

В этой теме нет новых непрочитанных сообщений. Тор: Рагнарёк / Thor: Ragnarok (Тайка Вайтити) [2017, фантастика, боевик, комедия, приключения, BDRip] DUB / Фантастика

49 | 0

1.45 ГБ




Вы не можете начинать темы
Вы не можете отвечать на сообщения
Вы не можете редактировать свои сообщения
Вы не можете удалять свои сообщения
Вы не можете добавлять вложения

Перейти:  
Для Мосгорсуда, Роскомнадзора и рекламодателей: mosgorsud-torrent[собачка]yandex.ru
 Вход
ppkBB3cker v.2 © 2008-2014 @ PPK
[ Time : 0.019s | 17 Queries | GZIP : Off ]

Торрент трекер RS-torrent.com
cron