img image001 image001 image001 image001 image001 image001 image001 image001 image001 image001 image001 image001 image001 image001 image001 image001
Planets Sun Sun Sun
Статистика раздачи
Автор: Nickolas3434 | Размер: 744.63 МБ | Добавлен: 12 янв 2018
Раздают: 0    Качают: 0
Скачать торрент
Скачать торрент

СообщениеДобавлено: 12 янв 2018 

Информация о фильме:
Название: Дэнни цепной пёс
Оригинальное название: Unleashed / Danny The Dog
Год выхода: 2005
Жанр: Боевик, триллер, драма, криминал
Режиссер: Луи Летерье
В ролях: Джет Ли, Морган Фриман, Боб Хоскинс, Керри Кондон, Винсент Риган, Дилан Браун, Тэмер Хассан, Майкл Дженн, Филлида Ло, Кэрол Энн Уилсон
О фильме :
Дэнни — человек. Он — не собака и вообще не зверь. Но он ходит в ошейнике, спит в ошейнике, ест в ошейнике, почти круглые сутки он проводит в ошейнике. Потому что таким его воспитал Барт, гангстер из Глазго, собиратель долгов, не брезгующий никакими методами при достижении поставленной цели. Когда ему не отдают долг, у него быстро лопается терпение, и тогда Барт снимает с Дэнни ошейник. И Дэнни превращается в собаку, в злобного бультерьера, в адскую смесь жестокого зверя и неудержимого боевого киборга. Нет на свете соперника, равного Дэнни в поединке. Дэнни не знает иной жизни, кроме полусонного существования в ошейнике или смертельной битвы без ошейника. Однажды волею судьбы он оказывается в доме, где живут старый слепой пианист Сэм и его приемная дочь Виктория. Дэнни узнает, что есть иная жизнь, в которой есть чувства, краски, звуки…

Страна: США / Франция / Великобритания
Студия: Europa Corp. / Canal +
Продолжительность: 01:42:45
Перевод: Профессиональный (многоголосый, закадровый) |Superbit|
Файл
Формат: MKV
Качество: BDRip-AVC (Blu-ray disc)
Видео: MPEG-4 AVC, 752x320, ~ 935 Кбит/с
Аудио: AAC-LC, 2 ch, ~ 76 Кбит/с
Субтитры: Русские, английские
Общее
Уникальный идентификатор : 226557835918260592504475088697971871356 (0xAA7173B8703321D1A3EEE59BEA4A8E7C)
Полное имя : D:MOVIESUnleashed.2005.ExKinoRay.mkv
Формат : Matroska
Версия формата : Version 4 / Version 2
Размер файла : 745 Мбайт
Продолжительность : 1 ч. 42 м.
Общий поток : 1013 Кбит/сек
Дата кодирования : UTC 2018-01-09 12:12:34
Программа кодирования : mkvmerge v15.0.0 ('Duel with the Devil') 64-bit
Библиотека кодирования : libebml v1.3.5 + libmatroska v1.4.5
Видео
Идентификатор : 1
Формат : AVC
Формат/Информация : Advanced Video Codec
Профиль формата : High@L4.1
Параметр CABAC формата : Да
Параметр RefFrames формата : 10 кадров
Идентификатор кодека : V_MPEG4/ISO/AVC
Продолжительность : 1 ч. 42 м.
Битрейт : 935 Кбит/сек
Ширина : 752 пикселя
Высота : 320 пикселей
Соотношение сторон : 2,35:1
Режим частоты кадров : Постоянный
Частота кадров : 23,976 (24000/1001) кадра/сек
Цветовое пространство : YUV
Субдискретизация насыщенности : 4:2:0
Битовая глубина : 8 бит
Тип развёртки : Прогрессивная
Бит/(Пиксели*Кадры) : 0.162
Размер потока : 687 Мбайт (92%)
Библиотека кодирования : x264 core 152 r2851kMod ba24899
Настройки программы : cabac=1 / ref=10 / deblock=1:-2:-2 / analyse=0x3:0x133 / me=umh / subme=11 / psy=1 / fade_compensate=0.00 / psy_rd=1.00:0.06 / mixed_ref=1 / me_range=32 / chroma_me=1 / trellis=2 / 8x8dct=1 / cqm=0 / deadzone=21,11 / fast_pskip=0 / chroma_qp_offset=-3 / threads=6 / lookahead_threads=1 / sliced_threads=0 / nr=0 / decimate=0 / interlaced=0 / bluray_compat=0 / constrained_intra=0 / bframes=10 / b_pyramid=2 / b_adapt=2 / b_bias=0 / direct=3 / weightb=1 / open_gop=0 / weightp=2 / keyint=240 / keyint_min=23 / scenecut=40 / intra_refresh=0 / rc_lookahead=40 / rc=2pass / mbtree=1 / bitrate=935 / ratetol=1.0 / qcomp=0.60 / qpmin=0 / qpmax=69 / qpstep=4 / cplxblur=20.0 / qblur=0.5 / vbv_maxrate=50000 / vbv_bufsize=62500 / nal_hrd=none / filler=0 / ip_ratio=1.40 / aq=3:1.00
Default : Да
Forced : Нет
Аудио
Идентификатор : 2
Формат : AAC
Формат/Информация : Advanced Audio Codec
Профиль формата : LC
Идентификатор кодека : A_AAC
Продолжительность : 1 ч. 42 м.
Битрейт : 76,0 Кбит/сек
Каналы : 2 канала
Расположение каналов : Front: L R
Частота : 48,0 КГц
Частота кадров : 46,875 кадров/сек (1024 SPF)
Метод сжатия : С потерями
Задержка видео : 9 мс.
Размер потока : 55,9 Мбайт (8%)
Язык : Russian
Default : Да
Forced : Нет
Текст #1
Идентификатор : 3
Формат : UTF-8
Идентификатор кодека : S_TEXT/UTF8
Идентификатор кодека/Информация : UTF-8 Plain Text
Продолжительность : 1 ч. 35 м.
Битрейт : 77 бит/сек
ElementCount : 1126
Размер потока : 54,0 Кбайт (0%)
Заголовок : Superbit
Язык : Russian
Default : Нет
Forced : Нет
Текст #2
Идентификатор : 4
Формат : UTF-8
Идентификатор кодека : S_TEXT/UTF8
Идентификатор кодека/Информация : UTF-8 Plain Text
Продолжительность : 1 ч. 35 м.
Битрейт : 77 бит/сек
ElementCount : 1129
Размер потока : 54,4 Кбайт (0%)
Заголовок : CP Digital
Язык : Russian
Default : Нет
Forced : Нет
Текст #3
Идентификатор : 5
Формат : UTF-8
Идентификатор кодека : S_TEXT/UTF8
Идентификатор кодека/Информация : UTF-8 Plain Text
Продолжительность : 1 ч. 32 м.
Битрейт : 49 бит/сек
ElementCount : 1127
Размер потока : 33,6 Кбайт (0%)
Заголовок : #1
Язык : English
Default : Нет
Forced : Нет
Текст #4
Идентификатор : 6
Формат : UTF-8
Идентификатор кодека : S_TEXT/UTF8
Идентификатор кодека/Информация : UTF-8 Plain Text
Продолжительность : 1 ч. 32 м.
Битрейт : 47 бит/сек
ElementCount : 1127
Размер потока : 32,3 Кбайт (0%)
Заголовок : #2
Язык : English
Default : Нет
Forced : Нет
Меню
00:00:00.000 : en:Attaboy! (Main Titles)
00:05:37.545 : en:Daily Rounds
00:09:15.096 : en:Get 'Em!
00:13:18.506 : en:Out of Tune
00:20:33.106 : en:Lucrative Proposition
00:25:00.207 : en:One Lovely Day
00:27:27.062 : en:Strange Surroundings
00:31:56.706 : en:Opportunity to Learn
00:36:01.367 : en:"Ripe Means Sweet"
00:41:50.716 : en:"Sweet is Good"
00:47:50.409 : en:Asking Questions
00:51:41.473 : en:Part of the Family
00:56:04.903 : en:Look Who's Come Home
01:00:29.751 : en:No More Killing!
01:08:18.385 : en:Families Stick Together
01:14:11.822 : en:Remembering the Past
01:19:59.336 : en:No Time
01:26:22.218 : en:You're My Dog!
01:33:48.247 : en:Saved by Music
01:35:48.033 : en:End Titles



Релиз от:



   Похожие торренты   Торрент   Размер 
В этой теме нет новых непрочитанных сообщений. Дэнни Цепной пёс / Unleashed (2005) BDRip 720p | Расширенная версия | Р, Р2, А, L1

48 | 6

8.29 ГБ

В этой теме нет новых непрочитанных сообщений. Дэнни Цепной пес / Danny the Dog (2005) BDRip-AVC | P, P2, А | Unrated

30 | 0

2.83 ГБ

В этой теме нет новых непрочитанных сообщений. Дум / Doom (2005) BDRip-AVC от ExKinoRay | Unrated Extended Edition | D

174 | 4

744.22 МБ

В этой теме нет новых непрочитанных сообщений. Земля мертвых / Land of the Dead (2005) BDRip-AVC от ExKinoRay | Unrated | P

81 | 9

746.56 МБ

В этой теме нет новых непрочитанных сообщений. Незваные гости / Wedding Crashers (2005) HDRip-AVC от ExKinoRay | Unrated | D

102 | 6

746.83 МБ

В этой теме нет новых непрочитанных сообщений. Сорокалетний девственник / The 40-Year-Old Virgin (2005) HDRip-AVC от ExKinoRay | Unrated | D

1 | 1

746.09 МБ

В этой теме нет новых непрочитанных сообщений. Пир / Feast (2005) BDRip-AVC | Unrated | L1

48 | 5

743.21 МБ




Вы не можете начинать темы
Вы не можете отвечать на сообщения
Вы не можете редактировать свои сообщения
Вы не можете удалять свои сообщения
Вы не можете добавлять вложения

Перейти:  
Для Мосгорсуда, Роскомнадзора и рекламодателей: mosgorsud-torrent[собачка]yandex.ru
cron
 Вход
ppkBB3cker v.2 © 2008-2014 @ PPK
[ Time : 0.034s | 18 Queries | GZIP : Off ]

Торрент трекер RS-torrent.com
cron