img image001 image001 image001 image001 image001 image001 image001 image001 image001 image001 image001 image001 image001 image001 image001 image001
Planets Sun Sun Sun
Статистика раздачи
Автор: Nickolas3434 | Размер: 9.77 ГБ | Добавлен: 12 янв 2018
Раздают: 34    Качают: 8
Скачать торрент
Скачать торрент

СообщениеДобавлено: 12 янв 2018 

Информация о фильме
Название: Ю-571
Оригинальное название: U-571
Год выхода: 2000
Жанр: боевик, драма, военный
Страна: США, Франция
Студия: Canal Plus Image International, Dino De Laurentiis Productions, Universal Pictures
Продолжительность: 01:55:59
Перевод: Дублированный, авторский одноголосый
Режиссёр: Джонатан Мостоу / Jonathan Mostow
В ролях: Мэттью МакКонахи, Билл Пэкстон, Харви Кейтель, Джон Бон Джови, Дэвид Кейт, Томас Кречманн, Джэйк Вебер, Джек Ноузворфи, Том Гуири, Уилл Эстес

О фильме
1942 год. Немецкие подводные лодки хозяйничают в Атлантике. Радиоперехваты не дают союзникам ничего: сообщения противника не поддаются расшифровке. И тогда американские моряки получают секретное задание: захватить вражескую субмарину U-571 и находящуюся на ее борту шифровальную машину «Энигма». Захватить… и вернуться обратно!


Файл
Качество: BDRip 720p
Видео: MPEG-4 AVC, 1280x720 (16:9), 9193 kbps, 24.000 fps
Аудио 1: Russian: 48 kHz, AC3, 5.1 ch, 384 kbps - DUB, R5
Аудио 2: Russian: 48 kHz, AC3, 5.1 ch, 448 kbps - AVO, А. Гаврилов
Аудио 3: Russian: 48 kHz, AC3, 5.1 ch, 448 kbps - AVO, Ю. Живов
Аудио 4: Russian: 48 kHz, AC3, 5.1 ch, 448 kbps - AVO, С. Визгунов
Аудио 5: Russian: 48 kHz, AC3, 5.1 ch, 448 kbps - AVO, Л. Володарский
Аудио 6: English: 48 kHz, AC3, 5.1 ch, 448 kbps - Оригинал
Субтитры: Русские, английские
Навигация по главам: есть
Релиз от:
--------------------------------OAR------------------------------vs--------------------------Open Matte-------------------------

Общее
Уникальный идентификатор : 216748862218571422214013166536409382559 (0xA3104FFA7C61B4C2BCC9909F39F27E9F)
Полное имя : Ю-571.2000.BDRip.720p.KORSAR.mkv
Формат : Matroska
Версия формата : Version 2
Размер файла : 9,77 Гбайт
Продолжительность : 1 ч. 55 м.
Общий поток : 12,1 Мбит/сек
Название фильма : Ю-571.2000.BDRip.720p.KORSAR
Дата кодирования : UTC 2018-01-08 20:16:18
Программа кодирования : mkvmerge v5.8.0 ('No Sleep / Pillow') built on Sep 2 2012 15:37:04
Библиотека кодирования : libebml v1.2.3 + libmatroska v1.3.0
Видео
Идентификатор : 1
Формат : AVC
Формат/Информация : Advanced Video Codec
Профиль формата : High@L4.1
Параметр CABAC формата : Да
Параметр RefFrames формата : 9 кадров
Идентификатор кодека : V_MPEG4/ISO/AVC
Продолжительность : 1 ч. 55 м.
Битрейт : 9193 Кбит/сек
Ширина : 1280 пикселей
Высота : 720 пикселей
Соотношение сторон : 16:9
Режим частоты кадров : Постоянный
Частота кадров : 24,000 кадра/сек
Цветовое пространство : YUV
Субдискретизация насыщенности : 4:2:0
Битовая глубина : 8 бит
Тип развёртки : Прогрессивная
Бит/(Пиксели*Кадры) : 0.416
Размер потока : 7,45 Гбайт (76%)
Библиотека кодирования : x264 core 148 r2744kMod b97ae06
Настройки программы : cabac=1 / ref=9 / deblock=1:-3:-2 / analyse=0x3:0x113 / me=umh / subme=10 / psy=1 / fade_compensate=0.00 / psy_rd=1.00:0.10 / mixed_ref=1 / me_range=40 / chroma_me=1 / trellis=2 / 8x8dct=1 / cqm=0 / deadzone=21,11 / fast_pskip=1 / chroma_qp_offset=-3 / threads=12 / lookahead_threads=3 / sliced_threads=0 / nr=0 / decimate=1 / interlaced=0 / bluray_compat=0 / constrained_intra=0 / bframes=16 / b_pyramid=2 / b_adapt=2 / b_bias=0 / direct=1 / weightb=1 / open_gop=0 / weightp=2 / keyint=240 / keyint_min=24 / scenecut=40 / intra_refresh=0 / rc_lookahead=40 / rc=crf / mbtree=0 / crf=18.5000 / qcomp=0.63 / qpmin=0 / qpmax=39 / qpstep=4 / vbv_maxrate=50000 / vbv_bufsize=62500 / crf_max=0.0 / nal_hrd=none / filler=0 / ip_ratio=1.40 / pb_ratio=1.30 / aq=3:0.80
Язык : English
Default : Да
Forced : Нет
Цветовой диапазон : Limited
Основные цвета : BT.709
Характеристики трансфера : BT.709
Коэффициенты матрицы : BT.709
Аудио #1
Идентификатор : 2
Формат : AC-3
Формат/Информация : Audio Coding 3
Параметр Endianness формата : Big
Идентификатор кодека : A_AC3
Продолжительность : 1 ч. 55 м.
Вид битрейта : Постоянный
Битрейт : 384 Кбит/сек
Каналы : 6 каналов
Расположение каналов : Front: L C R, Side: L R, LFE
Частота : 48,0 КГц
Частота кадров : 31,250 кадров/сек (1536 SPF)
Битовая глубина : 16 бит
Метод сжатия : С потерями
Размер потока : 319 Мбайт (3%)
Заголовок : DUB, R5
Язык : Russian
Default : Да
Forced : Нет
Аудио #2
Идентификатор : 3
Формат : AC-3
Формат/Информация : Audio Coding 3
Параметр Endianness формата : Big
Идентификатор кодека : A_AC3
Продолжительность : 1 ч. 55 м.
Вид битрейта : Постоянный
Битрейт : 448 Кбит/сек
Каналы : 6 каналов
Расположение каналов : Front: L C R, Side: L R, LFE
Частота : 48,0 КГц
Частота кадров : 31,250 кадров/сек (1536 SPF)
Битовая глубина : 16 бит
Метод сжатия : С потерями
Размер потока : 372 Мбайт (4%)
Заголовок : AVO, А. Гаврилов
Язык : Russian
Default : Нет
Forced : Нет
Аудио #3
Идентификатор : 4
Формат : AC-3
Формат/Информация : Audio Coding 3
Параметр Endianness формата : Big
Идентификатор кодека : A_AC3
Продолжительность : 1 ч. 55 м.
Вид битрейта : Постоянный
Битрейт : 448 Кбит/сек
Каналы : 6 каналов
Расположение каналов : Front: L C R, Side: L R, LFE
Частота : 48,0 КГц
Частота кадров : 31,250 кадров/сек (1536 SPF)
Битовая глубина : 16 бит
Метод сжатия : С потерями
Размер потока : 372 Мбайт (4%)
Заголовок : AVO, Ю. Живов
Язык : Russian
Default : Нет
Forced : Нет
Аудио #4
Идентификатор : 5
Формат : AC-3
Формат/Информация : Audio Coding 3
Параметр Endianness формата : Big
Идентификатор кодека : A_AC3
Продолжительность : 1 ч. 55 м.
Вид битрейта : Постоянный
Битрейт : 448 Кбит/сек
Каналы : 6 каналов
Расположение каналов : Front: L C R, Side: L R, LFE
Частота : 48,0 КГц
Частота кадров : 31,250 кадров/сек (1536 SPF)
Битовая глубина : 16 бит
Метод сжатия : С потерями
Размер потока : 372 Мбайт (4%)
Заголовок : AVO, С. Визгунов
Язык : Russian
Default : Нет
Forced : Нет
Аудио #5
Идентификатор : 6
Формат : AC-3
Формат/Информация : Audio Coding 3
Параметр Endianness формата : Big
Идентификатор кодека : A_AC3
Продолжительность : 1 ч. 55 м.
Вид битрейта : Постоянный
Битрейт : 448 Кбит/сек
Каналы : 6 каналов
Расположение каналов : Front: L C R, Side: L R, LFE
Частота : 48,0 КГц
Частота кадров : 31,250 кадров/сек (1536 SPF)
Битовая глубина : 16 бит
Метод сжатия : С потерями
Размер потока : 372 Мбайт (4%)
Заголовок : AVO, Л. Володарский
Язык : Russian
Default : Нет
Forced : Нет
Аудио #6
Идентификатор : 7
Формат : AC-3
Формат/Информация : Audio Coding 3
Параметр Endianness формата : Big
Идентификатор кодека : A_AC3
Продолжительность : 1 ч. 55 м.
Вид битрейта : Постоянный
Битрейт : 448 Кбит/сек
Каналы : 6 каналов
Расположение каналов : Front: L C R, Side: L R, LFE
Частота : 48,0 КГц
Частота кадров : 31,250 кадров/сек (1536 SPF)
Битовая глубина : 16 бит
Метод сжатия : С потерями
Размер потока : 372 Мбайт (4%)
Заголовок : Оригинал
Язык : English
Default : Нет
Forced : Нет
Текст #1
Идентификатор : 8
Формат : UTF-8
Идентификатор кодека : S_TEXT/UTF8
Идентификатор кодека/Информация : UTF-8 Plain Text
Язык : Russian
Default : Да
Forced : Нет
Текст #2
Идентификатор : 9
Формат : UTF-8
Идентификатор кодека : S_TEXT/UTF8
Идентификатор кодека/Информация : UTF-8 Plain Text
Язык : English
Default : Нет
Forced : Нет
Меню
00:00:00.000 : en:Dead in the Water
00:08:42.708 : en:The Lost Command
00:20:55.750 : en:A Special Op
00:32:20.916 : en:The Trojan Horse
00:41:19.875 : en:To Be a Captain
00:50:21.041 : en:Battle Stations
00:58:55.833 : en:The Boarding Party
01:07:05.000 : en:Siege
01:16:46.541 : en:The Floating Target
01:27:20.125 : en:Survivors
01:37:19.458 : en:Heading for England
01:49:31.000 : en:A Real Sea Captain
x264 [info]: frame I:1013 Avg QP:16.36 size: 148184
x264 [info]: frame P:33387 Avg QP:18.28 size: 91090
x264 [info]: frame B:132637 Avg QP:20.58 size: 37787
[*]x264 [info]: consecutive B-frames: 1.3% 1.6% 4.9% 16.7% 19.4% 44.5% 5.9% 1.2% 1.2% 0.6% 0.3% 0.5% 0.3% 0.3% 0.4% 0.8% 0.1%



   Похожие торренты   Торрент   Размер 
В этой теме нет новых непрочитанных сообщений. Ю-571 / U-571 (2000) BDRip 720p от 0ptimus | D, A | Open Matte

1 | 2

9.27 ГБ

В этой теме нет новых непрочитанных сообщений. Ю-571 / U-571 (2000) BDRip-AVC от 0ptimus | D, A | Open Matte

39 | 19

4.21 ГБ

В этой теме нет новых непрочитанных сообщений. Ю-571 / U-571 (2000) BDRip-AVC от 0ptimus | D, A | Open Matte

6 | 7

3.27 ГБ

В этой теме нет новых непрочитанных сообщений. Ю-571 / U-571 (2000) BDRip от Deadmauvlad | 2xA | Open Matte

108 | 12

2.18 ГБ

В этой теме нет новых непрочитанных сообщений. Ю-571 / U-571 (2000) BDRip 1080p от 0ptimus | D, A | Open Matte

2 | 8

14.5 ГБ

В этой теме нет новых непрочитанных сообщений. Гладиатор / Gladiator (2000) HDTVRip 720p от HDReactor | Extended Cut [Open Matte] | D, A

88 | 8

7.76 ГБ

В этой теме нет новых непрочитанных сообщений. Американский психопат / American Psycho (Мэри Хэррон) [Open Matte] [2000, драма, криминал, триллер, BDRip-AVC] DVO

0 | 0

1.49 ГБ




Вы не можете начинать темы
Вы не можете отвечать на сообщения
Вы не можете редактировать свои сообщения
Вы не можете удалять свои сообщения
Вы не можете добавлять вложения

Перейти:  
Для Мосгорсуда, Роскомнадзора и рекламодателей: mosgorsud-torrent[собачка]yandex.ru
 Вход
ppkBB3cker v.2 © 2008-2014 @ PPK
[ Time : 0.022s | 20 Queries | GZIP : Off ]

Торрент трекер RS-torrent.com
cron