img image001 image001 image001 image001 image001 image001 image001 image001 image001 image001 image001 image001 image001 image001 image001 image001
Planets Sun Sun Sun
Статистика раздачи
Автор: Nickolas3434 | Размер: 746.13 МБ | Добавлен: 12 янв 2018
Раздают: 1    Качают: 0
Скачать торрент
Скачать торрент

СообщениеДобавлено: 12 янв 2018 

Информация о фильме:
Название: Робот и Фрэнк
Оригинальное название: Robot & Frank
Год выхода: 2012
Жанр: фантастика, драма, комедия, криминал
Режиссер: Джейк Шрейер
В ролях: Фрэнк Ланджелла, Джеймс Марсден, Лив Тайлер, Сьюзен Сарандон, Питер Сарсгаард, Джереми Стронг, Дарио Бароссо, Бонни Бентли, Джеймс Д. Комптон, Ана Гастейер
О фильме :
Фильм о трогательной дружбе старика и робота. История заключается в том, что пожилой мужчина, Фрэнк, в прошлом, кстати, вор-взломщик, живет в одиночестве. Его уже взрослые дети далеко, и чтобы хоть как-то помочь стареющему отцу, у которого начинает развиваться болезнь Альцгеймера, сын дарит Фрэнку робота-компаньона. Действие фильма происходит в не очень далеком будущем, роботы в домашнем хозяйстве — вполне нормальное явление. Поскольку Фрэнк считает себя человеком самостоятельным и не желает, чтобы за ним кто-то или что-то присматривало, он с опаской относится к подаренному роботу.

Выпущено: США, Dog Run Pictures, Park Pictures, TBB
Продолжительность: 01:29:00
Перевод: Профессиональный (многоголосый, закадровый)
Файл
Формат: MKV
Качество: HDRip-AVC
Видео: MPEG-4 AVC, 768x320, ~ 1094 Кбит/с
Аудио: AAC-LC, 2 ch, ~ 76 Кбит/с
Субтитры: Русские, английские
Общее
Уникальный идентификатор : 210116176570905236213847015458012131746 (0x9E12E754055583E88DFEB25480C7F1A2)
Полное имя : D:MOVIESRobot.i.Frenk.2012.ExKinoRay.mkv
Формат : Matroska
Версия формата : Version 4 / Version 2
Размер файла : 746 Мбайт
Продолжительность : 1 ч. 29 м.
Общий поток : 1172 Кбит/сек
Дата кодирования : UTC 2018-01-11 14:25:45
Программа кодирования : mkvmerge v15.0.0 ('Duel with the Devil') 64-bit
Библиотека кодирования : libebml v1.3.5 + libmatroska v1.4.5
Видео
Идентификатор : 1
Формат : AVC
Формат/Информация : Advanced Video Codec
Профиль формата : High@L4.1
Параметр CABAC формата : Да
Параметр RefFrames формата : 10 кадров
Идентификатор кодека : V_MPEG4/ISO/AVC
Продолжительность : 1 ч. 29 м.
Битрейт : 1094 Кбит/сек
Ширина : 768 пикселей
Высота : 320 пикселей
Соотношение сторон : 2,40:1
Режим частоты кадров : Постоянный
Частота кадров : 23,976 (24000/1001) кадра/сек
Цветовое пространство : YUV
Субдискретизация насыщенности : 4:2:0
Битовая глубина : 8 бит
Тип развёртки : Прогрессивная
Бит/(Пиксели*Кадры) : 0.186
Размер потока : 696 Мбайт (93%)
Библиотека кодирования : x264 core 152 r2851kMod ba24899
Настройки программы : cabac=1 / ref=10 / deblock=1:-3:-3 / analyse=0x3:0x133 / me=umh / subme=11 / psy=1 / fade_compensate=0.00 / psy_rd=1.00:0.13 / mixed_ref=1 / me_range=32 / chroma_me=1 / trellis=2 / 8x8dct=1 / cqm=0 / deadzone=21,11 / fast_pskip=0 / chroma_qp_offset=-3 / threads=6 / lookahead_threads=1 / sliced_threads=0 / nr=0 / decimate=0 / interlaced=0 / bluray_compat=0 / constrained_intra=0 / bframes=10 / b_pyramid=2 / b_adapt=2 / b_bias=0 / direct=3 / weightb=1 / open_gop=0 / weightp=2 / keyint=240 / keyint_min=23 / scenecut=40 / intra_refresh=0 / rc_lookahead=40 / rc=2pass / mbtree=1 / bitrate=1094 / ratetol=1.0 / qcomp=0.60 / qpmin=0 / qpmax=69 / qpstep=4 / cplxblur=20.0 / qblur=0.5 / vbv_maxrate=50000 / vbv_bufsize=62500 / nal_hrd=none / filler=0 / ip_ratio=1.40 / aq=3:1.00
Default : Да
Forced : Нет
Аудио
Идентификатор : 2
Формат : AAC
Формат/Информация : Advanced Audio Codec
Профиль формата : LC
Идентификатор кодека : A_AAC
Продолжительность : 1 ч. 29 м.
Битрейт : 76,0 Кбит/сек
Каналы : 2 канала
Расположение каналов : Front: L R
Частота : 48,0 КГц
Частота кадров : 46,875 кадров/сек (1024 SPF)
Метод сжатия : С потерями
Задержка видео : 9 мс.
Размер потока : 48,4 Мбайт (6%)
Язык : Russian
Default : Да
Forced : Нет
Текст #1
Идентификатор : 3
Формат : UTF-8
Идентификатор кодека : S_TEXT/UTF8
Идентификатор кодека/Информация : UTF-8 Plain Text
Продолжительность : 1 ч. 21 м.
Битрейт : 107 бит/сек
ElementCount : 1180
Размер потока : 64,3 Кбайт (0%)
Язык : Russian
Default : Нет
Forced : Нет
Текст #2
Идентификатор : 4
Формат : UTF-8
Идентификатор кодека : S_TEXT/UTF8
Идентификатор кодека/Информация : UTF-8 Plain Text
Продолжительность : 1 ч. 18 м.
Битрейт : 67 бит/сек
ElementCount : 1177
Размер потока : 38,7 Кбайт (0%)
Язык : English
Default : Нет
Forced : Нет
Меню
00:00:00.000 : en:00:00:00.000
00:04:21.303 : en:00:04:21.303
00:08:40.895 : en:00:08:40.895
00:13:52.832 : en:00:13:52.832
00:17:57.243 : en:00:17:57.243
00:23:37.708 : en:00:23:37.708
00:29:37.317 : en:00:29:37.317
00:34:08.630 : en:00:34:08.630
00:39:36.749 : en:00:39:36.749
00:44:04.892 : en:00:44:04.892
00:50:52.841 : en:00:50:52.841
00:57:55.472 : en:00:57:55.472
01:01:44.117 : en:01:01:44.117
01:07:34.926 : en:01:07:34.926
01:13:00.376 : en:01:13:00.376
01:19:23.425 : en:01:19:23.425


Релиз от:



   Похожие торренты   Торрент   Размер 
В этой теме нет новых непрочитанных сообщений. Фрэнк / Frank (2014) HDRip | Лицензия

2154 | 140

1.45 ГБ

В этой теме нет новых непрочитанных сообщений. Фрэнк / Frank (2014) HDRip от Scarabey | Р | Лицензия

383 | 42

1.42 ГБ

В этой теме нет новых непрочитанных сообщений. Фрэнк / Frank (2014) HDRip от Scarabey | Р | Лицензия

138 | 24

744.16 МБ

В этой теме нет новых непрочитанных сообщений. Фрэнк / Frank (2014) BDRip | L1

1620 | 176

1.45 ГБ

В этой теме нет новых непрочитанных сообщений. Фрэнк / Frank (2014) BDRip 1080p | L1

182 | 34

6.85 ГБ

В этой теме нет новых непрочитанных сообщений. Фрэнк / Frank (2014) BDRip 720p | L1

422 | 64

3.57 ГБ

В этой теме нет новых непрочитанных сообщений. Плохой Фрэнк / Bad Frank (2017) WEB-DLRip | L

906 | 150

1.37 ГБ




Вы не можете начинать темы
Вы не можете отвечать на сообщения
Вы не можете редактировать свои сообщения
Вы не можете удалять свои сообщения
Вы не можете добавлять вложения

Перейти:  
Для Мосгорсуда, Роскомнадзора и рекламодателей: mosgorsud-torrent[собачка]yandex.ru
 Вход
ppkBB3cker v.2 © 2008-2014 @ PPK
[ Time : 0.032s | 19 Queries | GZIP : Off ]

Торрент трекер RS-torrent.com
cron