img image001 image001 image001 image001 image001 image001 image001 image001 image001 image001 image001 image001 image001 image001 image001
Planets Sun Sun Sun
Статистика раздачи
Автор: Nickolas3434 | Размер: 1.46 ГБ | Добавлен: 12 янв 2018
Раздают: 42    Качают: 7
Скачать торрент
Скачать торрент

СообщениеДобавлено: 12 янв 2018 

✦ Возмутитель спокойствия / Borgman ✦

Информация о фильме:
❖ Год выпуска: 2013
❖ Страна: Нидерланды, Бельгия, Дания / Angel Films, Epidemic, Graniet Film BV, Mollywood, NTR, Dansk Filmfotograf Forbund (DFF)
❖ Жанр: триллер, драма, детектив
❖ Перевод: Профессиональный (многоголосый, закадровый)
❖ Продолжительность: 01:53:00
❖ Режиссер: Джон Бэйли
❖ В ролях: Ян Бейвут, Хадевих Минис, Джероен Персеваль, Алекс ван Вармердам, Том Де Виспеларе, Сара Йорт Дитлевсен, Элве Лейбарт
❖ Релиз от:
❖ Автор рипа: ProT1gR
Описание фильма:
То ли демон из ночных кошмаров, то ли аллегория, то ли ожившее воплощение всех человеческих страхов — Боргман, словно злой дух современного города, загнанный за красивые фасады, вырывается на волю. Размеренная жизнь обычной семьи с его появлением уже никогда не вернётся в прежнее русло…

Технические данные файла:
❖ Качество: HDRip-AVC (Исх. BDRip 1080p)
❖ Формат: MKV
❖ Видео: 1024x424 (2.35:1), 24 fps, MPEG-4 AVC ~ 1 650 kbps (0.158 bit/pixel)
❖ Аудио: AC3, 48.0 KHz, 2 ch, 192 kbps
General
Unique ID : 210967240334647370544591968050776011383 (0x9EB6D002EAFB6B4E90EE231857A27277)
Complete name : X:x264Borgman.(2013).HDRip-AVC.MVO.[Kaztorrents].mkv
Format : Matroska
Format version : Version 2
File size : 1.46 GiB
Duration : 1 h 53 min
Overall bit rate : 1 842 kb/s
Encoded date : UTC 2018-01-11 12:16:34
Writing application : mkvmerge v7.8.0 ('River Man') 32bit built on Apr 3 2015 12:11:22
Writing library : libebml v1.3.1 + libmatroska v1.4.2
Video
ID : 1
Format : AVC
Format/Info : Advanced Video Codec
Format profile : High@L4
Format settings, CABAC : Yes
Format settings, ReFrames : 12 frames
Codec ID : V_MPEG4/ISO/AVC
Duration : 1 h 53 min
Bit rate : 1 650 kb/s
Width : 1 024 pixels
Height : 424 pixels
Display aspect ratio : 2.40:1
Frame rate mode : Constant
Frame rate : 24.000 FPS
Color space : YUV
Chroma subsampling : 4:2:0
Bit depth : 8 bits
Scan type : Progressive
Bits/(Pixel*Frame) : 0.158
Stream size : 1.28 GiB (88%)
Writing library : x264 core 146 r2538 121396c
Encoding settings : cabac=1 / ref=12 / deblock=1:-3:-3 / analyse=0x3:0x113 / me=umh / subme=11 / psy=1 / psy_rd=1.00:0.00 / mixed_ref=1 / me_range=48 / chroma_me=1 / trellis=2 / 8x8dct=1 / cqm=0 / deadzone=21,11 / fast_pskip=0 / chroma_qp_offset=-2 / threads=6 / lookahead_threads=1 / sliced_threads=0 / nr=0 / decimate=0 / interlaced=0 / bluray_compat=0 / constrained_intra=0 / bframes=12 / b_pyramid=2 / b_adapt=2 / b_bias=0 / direct=3 / weightb=1 / open_gop=0 / weightp=2 / keyint=240 / keyint_min=23 / scenecut=40 / intra_refresh=0 / rc_lookahead=40 / rc=2pass / mbtree=0 / bitrate=1650 / ratetol=1.0 / qcomp=0.60 / qpmin=0 / qpmax=69 / qpstep=4 / cplxblur=20.0 / qblur=0.5 / vbv_maxrate=50000 / vbv_bufsize=62500 / nal_hrd=none / filler=0 / ip_ratio=1.40 / pb_ratio=1.30 / aq=1:1.10
Default : Yes
Forced : No
Audio
ID : 2
Format : AC-3
Format/Info : Audio Coding 3
Format settings, Endianness : Big
Codec ID : A_AC3
Duration : 1 h 53 min
Bit rate mode : Constant
Bit rate : 192 kb/s
Channel(s) : 2 channels
Channel positions : Front: L R
Sampling rate : 48.0 kHz
Frame rate : 31.250 FPS (1536 spf)
Bit depth : 16 bits
Compression mode : Lossy
Stream size : 155 MiB (10%)
Service kind : Complete Main
Default : Yes
Forced : No





   Похожие торренты   Торрент   Размер 
В этой теме нет новых непрочитанных сообщений. Возмутитель спокойствия / Borgman (2013) HDRip | P

346 | 35

1.46 ГБ

В этой теме нет новых непрочитанных сообщений. Возмутитель спокойствия / Borgman (2013) HDRip | L1

0 | 2

1.37 ГБ

В этой теме нет новых непрочитанных сообщений. Возмутитель спокойствия / Borgman (2013) BDRip 1080p | Р

0 | 0

8.65 ГБ

В этой теме нет новых непрочитанных сообщений. Боргман: Возмутитель спокойствия / Borgman (2013) DVDRip | L1

12 | 4

749.48 МБ

В этой теме нет новых непрочитанных сообщений. Леонид Филатов - Возмутитель спокойствия [Аудиоспектакль] (2002) MP3

54 | 2

154.44 МБ

В этой теме нет новых непрочитанных сообщений. Спектакль - Возмутитель спокойствия (2016) SATRip от Files-x

31 | 0

895.73 МБ

В этой теме нет новых непрочитанных сообщений. Эверест. Достигая невозможного / Beyond the Edge (2013) HDRip от Kaztorrents | P

60 | 1

748.44 МБ




Вы не можете начинать темы
Вы не можете отвечать на сообщения
Вы не можете редактировать свои сообщения
Вы не можете удалять свои сообщения
Вы не можете добавлять вложения

Перейти:  
Для Мосгорсуда, Роскомнадзора и рекламодателей: mosgorsud-torrent[собачка]yandex.ru
 Вход
ppkBB3cker v.2 © 2008-2014 @ PPK
[ Time : 0.030s | 19 Queries | GZIP : Off ]

Торрент трекер RS-torrent.com
cron