img image001 image001 image001 image001 image001 image001 image001 image001 image001 image001 image001 image001 image001 image001 image001
Planets Sun Sun Sun
Статистика раздачи
Автор: Nickolas3434 | Размер: 21.67 ГБ | Добавлен: 12 янв 2018
Раздают: 0    Качают: 0
Скачать торрент
Скачать торрент

СообщениеДобавлено: 12 янв 2018 

Информация о фильме
Название: Увлечение
Оригинальное название: The Crush
Год выхода: 1993
Жанр: триллер, драма
Режиссер: Алан Шапиро
В ролях: Кэри Элвис, Алисия Сильверстоун, Дженнифер Рубин, Кертвуд Смит, Эмбер Бенсон, Гвинит Уолш, Мэттью Уолкер, Дебора Хэнкок, Беверли Эллиотт, Эндрю Эйрли
Описание: Жизнь Ника Элиота окончательно наладилась. Он получил отличную работу в популярном журнале, завязал романтические отношения с чудесной девушкой Эми и снял уютный домик у богатой супружеской четы в престижном квартале.
Когда же Ник познакомился с 14-летней дочерью хозяев Эдриан, она буквально очаровала молодого журналиста своей красотой, умом и формами. А Эдриан просто обезумела от страсти к Нику.
Но, не встретив взаимности, благовоспитанный подросток быстро превратился в одержимую ревностью мстительницу. Потому что Эдриан привыкла всегда получать все, что хочет. И если любимый не достанется ей, то не достанется никому…

Страна: США
Продолжительность: 01:29:01
Перевод 1: Профессиональный (двухголосый закадровый) Премьер Видео
Перевод 2: Профессиональный (двухголосый закадровый) НТВ
Перевод 3: Профессиональный (двухголосый закадровый) НТВ+
Перевод 4: Авторский (одноголосый закадровый) Вартан Дохалов
Перевод 5: Авторский (одноголосый закадровый) Юрий Живов
Субтитры: английские
Оригинальная аудиодорожка: английский
Файл
Качество: BDRemux 1080р
Видео: MPEG-4 AVC / NTSC 16:9 / 1920x1080 (1,78:1) / 29841 kbps / 23,976 fps / High@L4.1
Аудио 1: Russian / Dolby Digital Audio / 2.0 Ch / 48 kHz / 192 kbps / 16 bit / DVO / Премьер Видео
Аудио 2: Russian / Dolby Digital Audio / 2.0 Ch / 48 kHz / 192 kbps / 16 bit / DVO / НТВ
Аудио 3: Russian / Dolby Digital Audio / 2.0 Ch / 48 kHz / 192 kbps / 16 bit / DVO / НТВ+
Аудио 4: Russian / Dolby Digital Audio / 2.0 Ch / 48 kHz / 192 kbps / 16 bit / AVO / Вартан Дохалов
Аудио 5: Russian / Dolby Digital Audio / 2.0 Ch / 48 kHz / 192 kbps / 16 bit / AVO / Юрий Живов
Аудио 6: English / DTS-HD Master Audio / 5.1 Ch / 48 kHz / 2304 kbps / 24-bit (DTS Core: 5.1 Ch / 48 kHz / 1509 kbps / 24-bit) / Original
Аудио 7: English / DTS-HD Master Audio / 2.0 Ch / 48 kHz / 1745 kbps / 24-bit (DTS Core: 2.0 Ch / 48 kHz / 1509 kbps / 24-bit) / Commentary

Общее
Уникальный идентификатор : 242870299705211990403034640142988009440 (0xB6B71E47A0C6ABC38CF6625595F0DFE0)
Полное имя : The Crush.1993.BDRemux.1080p.mkv
Формат : Matroska
Версия формата : Version 4 / Version 2
Размер файла : 21,7 Гбайт
Продолжительность : 1 ч. 29 м.
Режим общего битрейта : Переменный
Общий поток : 34,9 Мбит/сек
Дата кодирования : UTC 2016-06-25 22:48:48
Программа кодирования : mkvmerge v9.2.0 ('Photograph') 64bit
Библиотека кодирования : libebml v1.3.3 + libmatroska v1.4.4
Видео
Идентификатор : 1
Формат : AVC
Формат/Информация : Advanced Video Codec
Профиль формата : High@L4.1
Параметр CABAC формата : Да
Параметр ReFrames формата : 4 кадра
Идентификатор кодека : V_MPEG4/ISO/AVC
Продолжительность : 1 ч. 29 м.
Вид битрейта : Переменный
Битрейт : 29,8 Мбит/сек
Максимальный битрейт : 35,0 Мбит/сек
Ширина : 1920 пикселей
Высота : 1080 пикселей
Соотношение сторон : 16:9
Режим частоты кадров : Постоянный
Частота кадров : 23,976 (24000/1001) кадра/сек
Цветовое пространство : YUV
Субдискретизация насыщенности : 4:2:0
Битовая глубина : 8 бит
Тип развёртки : Прогрессивная
Бит/(Пиксели*Кадры) : 0.600
Размер потока : 18,6 Гбайт (86%)
Язык : English
Default : Да
Forced : Нет
Аудио #1
Идентификатор : 2
Формат : AC-3
Формат/Информация : Audio Coding 3
Расширение режима : CM (complete main)
Параметр Endianness формата : Big
Идентификатор кодека : A_AC3
Продолжительность : 1 ч. 29 м.
Вид битрейта : Постоянный
Битрейт : 192 Кбит/сек
Каналы : 2 канала
Расположение каналов : Front: L R
Частота : 48,0 КГц
Частота кадров : 31,250 кадров/сек (1536 spf)
Метод сжатия : С потерями
Размер потока : 122 Мбайт (1%)
Заголовок : MVO / Премьер Видео
Язык : Russian
Default : Да
Forced : Нет
Аудио #2
Идентификатор : 3
Формат : AC-3
Формат/Информация : Audio Coding 3
Расширение режима : CM (complete main)
Параметр Endianness формата : Big
Идентификатор кодека : A_AC3
Продолжительность : 1 ч. 29 м.
Вид битрейта : Постоянный
Битрейт : 192 Кбит/сек
Каналы : 2 канала
Расположение каналов : Front: L R
Частота : 48,0 КГц
Частота кадров : 31,250 кадров/сек (1536 spf)
Метод сжатия : С потерями
Размер потока : 122 Мбайт (1%)
Заголовок : DVO / НТВ
Язык : Russian
Default : Нет
Forced : Нет
Аудио #3
Идентификатор : 4
Формат : AC-3
Формат/Информация : Audio Coding 3
Расширение режима : CM (complete main)
Параметр Endianness формата : Big
Идентификатор кодека : A_AC3
Продолжительность : 1 ч. 29 м.
Вид битрейта : Постоянный
Битрейт : 192 Кбит/сек
Каналы : 2 канала
Расположение каналов : Front: L R
Частота : 48,0 КГц
Частота кадров : 31,250 кадров/сек (1536 spf)
Метод сжатия : С потерями
Размер потока : 122 Мбайт (1%)
Заголовок : MVO / НТВ+
Язык : Russian
Default : Нет
Forced : Нет
Аудио #4
Идентификатор : 5
Формат : AC-3
Формат/Информация : Audio Coding 3
Расширение режима : CM (complete main)
Параметр Endianness формата : Big
Идентификатор кодека : A_AC3
Продолжительность : 1 ч. 27 м.
Вид битрейта : Постоянный
Битрейт : 192 Кбит/сек
Каналы : 2 канала
Расположение каналов : Front: L R
Частота : 48,0 КГц
Частота кадров : 31,250 кадров/сек (1536 spf)
Метод сжатия : С потерями
Размер потока : 120 Мбайт (1%)
Заголовок : AVO / Вартан Дохалов
Язык : Russian
Default : Нет
Forced : Нет
Аудио #5
Идентификатор : 6
Формат : AC-3
Формат/Информация : Audio Coding 3
Расширение режима : CM (complete main)
Параметр Endianness формата : Big
Идентификатор кодека : A_AC3
Продолжительность : 1 ч. 28 м.
Вид битрейта : Постоянный
Битрейт : 192 Кбит/сек
Каналы : 2 канала
Расположение каналов : Front: L R
Частота : 48,0 КГц
Частота кадров : 31,250 кадров/сек (1536 spf)
Метод сжатия : С потерями
Размер потока : 122 Мбайт (1%)
Заголовок : AVO / Юрий Живов
Язык : Russian
Default : Нет
Forced : Нет
Аудио #6
Идентификатор : 7
Формат : DTS
Формат/Информация : Digital Theater Systems
Профиль формата : MA / Core
Режим : 16
Параметр Endianness формата : Big
Идентификатор кодека : A_DTS
Продолжительность : 1 ч. 29 м.
Вид битрейта : Переменный / Постоянный
Битрейт : 2304 Кбит/сек / 1509 Кбит/сек
Каналы : 6 каналов
Расположение каналов : Front: L C R, Side: L R, LFE
Частота : 48,0 КГц
Частота кадров : 93,750 кадра/сек (512 spf)
Битовая глубина : 24 бит
Метод сжатия : Без потерь / Lossy
Размер потока : 1,43 Гбайт (7%)
Заголовок : Original
Язык : English
Default : Нет
Forced : Нет
Аудио #7
Идентификатор : 8
Формат : DTS
Формат/Информация : Digital Theater Systems
Профиль формата : MA / Core
Режим : 16
Параметр Endianness формата : Big
Идентификатор кодека : A_DTS
Продолжительность : 1 ч. 29 м.
Вид битрейта : Переменный / Постоянный
Битрейт : 1745 Кбит/сек / 1509 Кбит/сек
Каналы : 2 канала
Расположение каналов : Front: L R
Частота : 48,0 КГц
Частота кадров : 93,750 кадра/сек (512 spf)
Битовая глубина : 24 бит
Метод сжатия : Без потерь / Lossy
Размер потока : 1,09 Гбайт (5%)
Заголовок : Audio Commentary with writer/director Alan Shapiro
Язык : English
Default : Нет
Forced : Нет
Текст
Идентификатор : 9
Формат : UTF-8
Идентификатор кодека : S_TEXT/UTF8
Идентификатор кодека/Информация : UTF-8 Plain Text
Продолжительность : 1 ч. 23 м.
Битрейт : 48 бит/сек
Count of elements : 1250
Размер потока : 29,9 Кбайт (0%)
Заголовок : Original / SDH
Язык : English
Default : Нет
Forced : Нет
Меню
00:00:00.000 : en:00:00:00.000
00:10:05.313 : en:00:10:05.313
00:24:20.584 : en:00:24:20.584
00:38:19.380 : en:00:38:19.380
00:48:10.346 : en:00:48:10.346
01:00:47.686 : en:01:00:47.686
01:10:18.589 : en:01:10:18.589
01:25:07.102 : en:01:25:07.102



   Похожие торренты   Торрент   Размер 
В этой теме нет новых непрочитанных сообщений. Увлечение / Роковое увлечение / The Crush (1993) DVDRip

6 | 2

1.37 ГБ

В этой теме нет новых непрочитанных сообщений. Увлечение / The Crush (1993) HDTVRip | P2

2 | 4

745.02 МБ

В этой теме нет новых непрочитанных сообщений. Увлечение / The Crush (1993) HDTVRip | P, А

52 | 11

1.7 ГБ

В этой теме нет новых непрочитанных сообщений. Увлечение / The Crush (1993) HDTVRip-AVC от olegek70

0 | 2

1.45 ГБ

В этой теме нет новых непрочитанных сообщений. Увлечение / The Crush (1993) HDTVRip 720p

8 | 1

3.04 ГБ

В этой теме нет новых непрочитанных сообщений. Увлечение / The Crush (1993) HDTV 1080i

0 | 2

6.7 ГБ

В этой теме нет новых непрочитанных сообщений. Увлечение / The Crush (1993) BDRip от Koenig | P, P2, A

0 | 4

2.09 ГБ




Вы не можете начинать темы
Вы не можете отвечать на сообщения
Вы не можете редактировать свои сообщения
Вы не можете удалять свои сообщения
Вы не можете добавлять вложения

Перейти:  
Для Мосгорсуда, Роскомнадзора и рекламодателей: mosgorsud-torrent[собачка]yandex.ru
 Вход
ppkBB3cker v.2 © 2008-2014 @ PPK
[ Time : 0.021s | 20 Queries | GZIP : Off ]

Торрент трекер RS-torrent.com
cron