img image001 image001 image001 image001 image001 image001 image001 image001 image001 image001 image001 image001 image001 image001 image001 image001
Planets Sun Sun Sun
Статистика раздачи
Автор: mari | Размер: 747.05 МБ | Добавлен: 07 мар 2018
Раздают: 40    Качают: 1
Скачать торрент
Скачать торрент

СообщениеДобавлено: 07 мар 2018 

Джуманджи: Зов джунглей / Jumanji: Welcome to the Jungle

Перевод: Профессиональный (полное дублирование) iTunes
Субтитры: Русские, украинские, английские
Формат: LowHDRip-AVC, MKV, H.264, AAC
Страна: США
Режиссер: Джейк Кэздан
Жанр: фэнтези, боевик, комедия, приключения
Продолжительность: 01:59:01
Год выпуска: 2017

В ролях: Дуэйн Джонсон, Кевин Харт, Джек Блэк, Карен Гиллан, Риз Дэрби, Бобби Каннавейл, Ник Джонас, Алекс Вулф, Сер’Дариус Блэйн, Мэдисон Исман

Описание: Четверо подростков оказываются внутри игры «Джуманджи». Их ждет схватка с носорогами, черными мамбами, а на каждом шагу будет подстерегать бесконечная череда ловушек и головоломок. Чтобы пройти игру и остаться в живых, им придется перевоплотиться в персонажей игры: робкий и застенчивый Спенсер превращается в отважного и сильного исследователя, здоровяк Фридж — в коротышку, модница и красавица Беттани — в профессора, а неуклюжая и нескладная Марта становится бесстрашной и ловкой амазонкой. Друзьям придется привыкнуть к совершенно новым и таким непривычным для себя ролям и найти дорогу домой.



Видео: 768x320 (2.40:1), 23.976 fps, AVC MPEG-4 (H.264), ~799 kbps, 0.136 bit/pixel
Аудио: 48 kHz, AАС-HE, 2 ch, ~76 kbps

Формат : Matroska
Версия формата : Version 4 / Version 2
Размер файла : 747 Мбайт
Продолжительность : 1 ч. 59 м.
Общий поток : 877 Кбит/сек
Дата кодирования : UTC 2018-03-07 18:02:36
Программа кодирования : mkvmerge v15.0.0 ('Duel with the Devil') 64-bit
Библиотека кодирования : libebml v1.3.5 + libmatroska v1.4.5

Видео
Идентификатор : 1
Формат : AVC
Формат/Информация : Advanced Video Codec
Профиль формата :
Параметр CABAC формата : Да
Параметр RefFrames формата : 10 кадров
Идентификатор кодека : V_MPEG4/ISO/AVC
Продолжительность : 1 ч. 59 м.
Битрейт : 799 Кбит/сек
Ширина : 768 пикселей
Высота : 320 пикселей
Соотношение сторон : 2,40:1
Режим частоты кадров : Постоянный
Частота кадров : 23,976 (24000/1001) кадра/сек
Цветовое пространство : YUV
Субдискретизация насыщенности : 4:2:0
Битовая глубина : 8 бит
Тип развёртки : Прогрессивная
Бит/(Пиксели*Кадры) : 0.136
Размер потока : 680 Мбайт (91%)
Библиотека кодирования : x264 core 155 r2901 7d0ff22
Настройки программы : cabac=1 / ref=10 / deblock=1:-3:-3 / analyse=0x3:0x133 / me=umh / subme=11 / psy=1 / psy_rd=1.00:0.10 / mixed_ref=1 / me_range=32 / chroma_me=1 / trellis=2 / 8x8dct=1 / cqm=0 / deadzone=21,11 / fast_pskip=0 / chroma_qp_offset=-3 / threads=6 / lookahead_threads=1 / sliced_threads=0 / nr=0 / decimate=0 / interlaced=0 / bluray_compat=0 / constrained_intra=0 / bframes=10 / b_pyramid=2 / b_adapt=2 / b_bias=0 / direct=3 / weightb=1 / open_gop=0 / weightp=2 / keyint=240 / keyint_min=23 / scenecut=40 / intra_refresh=0 / rc_lookahead=40 / rc=2pass / mbtree=1 / bitrate=799 / ratetol=1.0 / qcomp=0.60 / qpmin=0 / qpmax=69 / qpstep=4 / cplxblur=20.0 / qblur=0.5 / vbv_maxrate=50000 / vbv_bufsize=62500 / nal_hrd=none / filler=0 / ip_ratio=1.40 / aq=3:1.00
Default : Да
Forced : Нет

Аудио
Идентификатор : 2
Формат : AAC
Формат/Информация : Advanced Audio Codec
Профиль формата : HE-AAC / LC
Идентификатор кодека : A_AAC
Продолжительность : 1 ч. 59 м.
Битрейт : 76,0 Кбит/сек
Каналы : 2 канала
Расположение каналов : Front: L R
Частота : 48,0 КГц / 24,0 КГц
Частота кадров : 23,438 кадра/сек (1024 SPF)
Метод сжатия : С потерями
Задержка видео : 31 мс.
Размер потока : 64,7 Мбайт (9%)
Default : Да
Forced : Нет

Текст #1
Идентификатор : 3
Формат : UTF-8
Идентификатор кодека : S_TEXT/UTF8
Идентификатор кодека/Информация : UTF-8 Plain Text
Продолжительность : 1 ч. 55 м.
Битрейт : 0 бит/сек
ElementCount : 2
Размер потока : 110 байт (0%)
Заголовок : forsed
Язык : Russian
Default : Да
Forced : Да

Текст #2
Идентификатор : 4
Формат : UTF-8
Идентификатор кодека : S_TEXT/UTF8
Идентификатор кодека/Информация : UTF-8 Plain Text
Продолжительность : 1 ч. 57 м.
Битрейт : 95 бит/сек
ElementCount : 1577
Размер потока : 82,2 Кбайт (0%)
Язык : Russian
Default : Нет
Forced : Нет

Текст #3
Идентификатор : 5
Формат : UTF-8
Идентификатор кодека : S_TEXT/UTF8
Идентификатор кодека/Информация : UTF-8 Plain Text
Продолжительность : 1 ч. 57 м.
Битрейт : 76 бит/сек
ElementCount : 1562
Размер потока : 66,4 Кбайт (0%)
Язык : Ukrainian
Default : Нет
Forced : Нет

Текст #4
Идентификатор : 6
Формат : UTF-8
Идентификатор кодека : S_TEXT/UTF8
Идентификатор кодека/Информация : UTF-8 Plain Text
Продолжительность : 1 ч. 48 м.
Битрейт : 63 бит/сек
ElementCount : 1539
Размер потока : 50,9 Кбайт (0%)
Язык : English
Default : Нет
Forced : Нет

Меню
00:00:00.000 : en:00:00:00.000
00:07:18.104 : en:00:07:18.104
00:17:15.993 : en:00:17:15.993
00:23:23.235 : en:00:23:23.235
00:29:24.972 : en:00:29:24.972
00:42:28.546 : en:00:42:28.546
00:47:11.162 : en:00:47:11.162
00:54:26.722 : en:00:54:26.722
01:03:20.839 : en:01:03:20.839
01:10:21.801 : en:01:10:21.801
01:15:51.672 : en:01:15:51.672
01:24:10.087 : en:01:24:10.087
01:28:20.295 : en:01:28:20.295
01:33:48.414 : en:01:33:48.414
01:42:22.887 : en:01:42:22.887
01:48:31.839 : en:01:48:31.839












   Похожие торренты   Торрент   Размер 
В этой теме нет новых непрочитанных сообщений. Джуманджи: Зов джунглей / Jumanji: Welcome to the Jungle (Джейк Кэздан) [2017, фэнтези, боевик, комедия, приключения, BDRip] DUB

136 | 4

2.13 ГБ

В этой теме нет новых непрочитанных сообщений. Джуманджи: Зов джунглей / Jumanji: Welcome to the Jungle (Джейк Кэздан) [2017, фэнтези, боевик, комедия, приключения, BDRip] DUB

1486 | 29

1.41 ГБ

В этой теме нет новых непрочитанных сообщений. Джуманджи: Зов джунглей / Jumanji: Welcome to the Jungle (Джейк Кэздан) [2017, фэнтези, боевик, комедия, приключения, HDRip] DUB

878 | 54

1.37 ГБ

В этой теме нет новых непрочитанных сообщений. Джуманджи: Зов джунглей / Jumanji: Welcome to the Jungle (Джейк Кэздан) [2017, фэнтези, боевик, комедия, приключения, WEB-DLRip] DUB

25 | 0

2.05 ГБ

В этой теме нет новых непрочитанных сообщений. Джуманджи: Зов джунглей / Jumanji: Welcome to the Jungle (Джейк Кэздан) [2017, фэнтези, боевик, комедия, приключения, WEBDLRip-AVC] DUB

381 | 19

1.45 ГБ

В этой теме нет новых непрочитанных сообщений. Джуманджи: Зов джунглей / Jumanji: Welcome to the Jungle (Джейк Кэздан) [2017, фэнтези, боевик, комедия, приключения, WEB-DLRip] DUB

2794 | 193

1.46 ГБ

В этой теме нет новых непрочитанных сообщений. Джуманджи: Зов джунглей / Jumanji: Welcome to the Jungle (Джейк Кэздан) [2017, фэнтези, боевик, комедия, приключения, HDRip] DUB

227 | 6

2.05 ГБ




Вы не можете начинать темы
Вы не можете отвечать на сообщения
Вы не можете редактировать свои сообщения
Вы не можете удалять свои сообщения
Вы не можете добавлять вложения

Перейти:  
Для Мосгорсуда, Роскомнадзора и рекламодателей: mosgorsud-torrent[собачка]yandex.ru
 Вход
ppkBB3cker v.2 © 2008-2014 @ PPK
[ Time : 0.034s | 17 Queries | GZIP : Off ]

Торрент трекер RS-torrent.com
cron