img image001 image001 image001 image001 image001 image001 image001 image001 image001 image001 image001 image001 image001 image001 image001 image001
Planets Sun Sun Sun
Статистика раздачи
Автор: mari | Размер: 741.69 МБ | Добавлен: 09 мар 2018
Раздают: 31    Качают: 3
Скачать торрент
Скачать торрент

СообщениеДобавлено: 09 мар 2018 

Лачуга смерти (Мертвая лачуга) / Dead Shack


Перевод: Авторский (одноголосый), субтитры: отсутствуют
Формат: WEBRip-AVC, MKV, H.264, MP3
Страна: Канада
Режиссер: Питер Рикк
Жанр: ужасы,комедия
Продолжительность: 01:22:00
Год выпуска: 2017
В ролях: Камерон Андрес, Лиззи Бойс, Ханна Рошель Бурр, Лорен Холли, Рафаэль Кемпиньский, Гэбриел ЛаБелль, Мэтью Нельсон-Махуд, Тейлор Ст. Пьер, Донаван Стинсон, Валери Тиан
Описание: Трое подростков вынуждены спасать изрядно загулявших родителей от сумасшедшей соседки по даче. Та хочет скормить их своей семье, которая превратилась в зомби.



Видео: 720x304 (2.40:1), 23.976 fps, ~1046 kbps avg, 0.199 bit/pixel
Аудио: 44.100 kHz, MPEG Layer 3, 2 ch, ~192.00 kbps avg
Трейлеры:












медиа инфо

Complete name : C:\Dead.Shack.2017.Xixidok.mkv
Format : Matroska
Format version : Version 4 / Version 2
File size : 742 MiB
Duration : 1h 22mn
Overall bit rate : 1 263 Kbps
Encoded date : UTC 2018-03-08 12:11:14
Writing application : mkvmerge v8.3.0 ('Over the Horizon') 64bit
Writing library : libebml v1.3.1 + libmatroska v1.4.2
DURATION : 01:22:06.354000000
NUMBER_OF_FRAMES : 188587
NUMBER_OF_BYTES : 118232503
_STATISTICS_WRITING_APP : mkvmerge v8.3.0 ('Over the Horizon') 64bit
_STATISTICS_WRITING_DATE_UTC : 2018-03-08 12:11:14
_STATISTICS_TAGS : BPS DURATION NUMBER_OF_FRAMES NUMBER_OF_BYTES

Video
ID : 1
Format : AVC
Format/Info : Advanced Video Codec
Format profile :
Format settings, CABAC : Yes
Format settings, ReFrames : 5 frames
Codec ID : V_MPEG4/ISO/AVC
Duration : 1h 22mn
Bit rate : 1 046 Kbps
Nominal bit rate : 1 100 Kbps
Width : 720 pixels
Height : 304 pixels
Display aspect ratio : 2.40:1
Frame rate mode : Constant
Frame rate : 23.976 fps
Color space : YUV
Chroma subsampling : 4:2:0
Bit depth : 8 bits
Scan type : Progressive
Bits/(Pixel*Frame) : 0.199
Stream size : 614 MiB (83%)
Writing library : x264 core 148 r2795M aaa9aa8
Encoding settings : cabac=1 / ref=5 / deblock=1:-1:-1 / analyse=0x3:0x113 / me=umh / subme=9 / psy=1 / psy_rd=1.00:0.15 / mixed_ref=1 / me_range=16 / chroma_me=1 / trellis=2 / 8x8dct=1 / cqm=0 / deadzone=21,11 / fast_pskip=1 / chroma_qp_offset=-3 / threads=24 / lookahead_threads=2 / sliced_threads=0 / nr=0 / decimate=1 / interlaced=0 / bluray_compat=0 / constrained_intra=0 / bframes=3 / b_pyramid=2 / b_adapt=2 / b_bias=0 / direct=3 / weightb=1 / open_gop=0 / weightp=2 / keyint=250 / keyint_min=23 / scenecut=40 / intra_refresh=0 / rc_lookahead=50 / rc=abr / mbtree=1 / bitrate=1100 / ratetol=1.0 / qcomp=0.60 / qpmin=0 / qpmax=69 / qpstep=4 / ip_ratio=1.40 / aq=1:1.00
Default : Yes
Forced : No

Audio
ID : 2
Format : MPEG Audio
Format version : Version 1
Format profile : Layer 3
Codec ID : A_MPEG/L3
Codec ID/Hint : MP3
Duration : 1h 22mn
Bit rate mode : Constant
Bit rate : 192 Kbps
Channel(s) : 2 channels
Sampling rate : 44.1 KHz
Compression mode : Lossy
Stream size : 113 MiB (15%)
Default : Yes
Forced : No



   Похожие торренты   Торрент   Размер 
В этой теме нет новых непрочитанных сообщений. Лачуга должника [01-05 из 08] (2017) WEBRip от GeneralFilm

919 | 119

3.58 ГБ

В этой теме нет новых непрочитанных сообщений. Лачуга должника [S01] (2017) SATRip-AVC

45 | 7

4.86 ГБ

В этой теме нет новых непрочитанных сообщений. Лачуга должника [01-08 из 08] (2017) WEB-DL 1080p

200 | 29

9.23 ГБ

В этой теме нет новых непрочитанных сообщений. Колодец смерти / Мертвая яма / The Dead Pit (Бретт Леонард) [1989, ужасы, DVDRip-AVC] AVO

3 | 1

744.42 МБ

В этой теме нет новых непрочитанных сообщений. Лачуга должника [01 из 08] (2017) WEB-DLRip-AVC от Files-x

1 | 0

1.29 ГБ

В этой теме нет новых непрочитанных сообщений. Лачуга должника [01-05 из 08] (2017) WEB-DLRip от Files-x

2261 | 442

5.08 ГБ

В этой теме нет новых непрочитанных сообщений. Лачуга должника [01-02 из 08] (2017) HDTVRip 720p от MediaClub

2 | 0

2.64 ГБ




Вы не можете начинать темы
Вы не можете отвечать на сообщения
Вы не можете редактировать свои сообщения
Вы не можете удалять свои сообщения
Вы не можете добавлять вложения

Перейти:  
Для Мосгорсуда, Роскомнадзора и рекламодателей: mosgorsud-torrent[собачка]yandex.ru
 Вход
ppkBB3cker v.2 © 2008-2014 @ PPK
[ Time : 0.020s | 19 Queries | GZIP : Off ]

Торрент трекер RS-torrent.com
cron