img image001 image001 image001 image001 image001 image001 image001 image001 image001 image001 image001 image001 image001 image001 image001 image001
Planets Sun Sun Sun
Статистика раздачи
Автор: mari | Размер: 2.11 ГБ | Добавлен: 09 мар 2018
Раздают: 60    Качают: 6
Скачать торрент
Скачать торрент

СообщениеДобавлено: 09 мар 2018 

Чудо / Wonder


Перевод: Профессиональный (полное дублирование) iTunes
Субтитры: Русские, английские
Формат: BDRip-AVC, MKV, H.264, AC3
Страна: США
Режиссер: Стивен Чбоски
Жанр: Драма, семейный
Продолжительность: 01:53:10
Год выпуска: 2017
В ролях: Джейкоб Тремблей, Оуэн Уилсон, Изабела Видович, Джулия Робертс, Марк Доцлав, Рукия Бернард, Дженнифер Марч, Мэнди Пэтинкин, Ноа Джуп, Брайс Гейзар
Описание: С одной стороны мальчик Август Пулман такой же как и другие мальчишки его возраста — любит ходить на дни рождения к друзьям, играть в компьютерные игры, фанатеет от «Звездных войн», играет со своей собакой, ссорится и мирится со старшей сестрой. А с другой — он совсем не такой как другие мальчишки его возраста. Во-первых, Август никогда не ходил в обычную школу — с первого класса с ним дома занималась мама. Во-вторых, Август перенес 27 операций. Из-за очень редкой, но иногда встречающейся генетической ошибки у Августа нет лица. И вот такой мальчик должен пойти в школу. В первый раз. К обычным детям.



Видео: 1024x426p (2.40:1), 23,976 fps, AVC MPEG-4 (x264), , ~ 1 842 kb/s, 0.176 bit/pixel

Аудио #1: Русский: 48 kHz/16-bit, AC3 Dolby Digital, 6 ch, ~ 384 kbps avg [Профессиональный (полное дублирование), iTunes]
Аудио #2: Английский: 48 kHz/16-bit, AC3 Dolby Digital, 6 ch, ~ 448 kbps avg [Оригинал]





Общее
Уникальный идентификатор : 218725239226429306488226687357689417970 (0xA48CF2E35F9D4F90A3585C8DF50650F2)
Полное имя : E:\Закачка-2\Wonder.2017.BDRip.AVC.ExKinoRay.mkv
Формат : Matroska
Версия формата : Version 2
Размер файла : 2,11 Гбайт
Продолжительность : 1 ч. 53 м.
Общий поток : 2672 Кбит/сек
Название фильма : Wonder (2017) from ExKinoRay
Дата кодирования : UTC 2018-03-08 04:50:23
Программа кодирования : mkvmerge v5.6.0 ('Kenya Kane') built on May 27 2012 16:44:04
Библиотека кодирования : libebml v1.2.3 + libmatroska v1.3.0

Видео
Идентификатор : 1
Формат : AVC
Формат/Информация : Advanced Video Codec
Профиль формата :
Параметр CABAC формата : Да
Параметр ReFrames формата : 11 кадров
Идентификатор кодека : V_MPEG4/ISO/AVC
Продолжительность : 1 ч. 53 м.
Битрейт : 1842 Кбит/сек
Ширина : 1024 пикселя
Высота : 426 пикселей
Соотношение сторон : 2,40:1
Режим частоты кадров : Постоянный
Частота кадров : 23,976 (23976/1000) кадра/сек
Цветовое пространство : YUV
Субдискретизация насыщенности : 4:2:0
Битовая глубина : 8 бит
Тип развёртки : Прогрессивная
Бит/(Пиксели*Кадры) : 0.176
Размер потока : 1,41 Гбайт (67%)
Заголовок : Enigma
Библиотека кодирования : x264 core 152 r2851 ba24899
Настройки программы : cabac=1 / ref=11 / deblock=1:-2:-2 / analyse=0x3:0x113 / me=umh / subme=10 / psy=1 / psy_rd=1.00:0.05 / mixed_ref=1 / me_range=32 / chroma_me=1 / trellis=2 / 8x8dct=1 / cqm=0 / deadzone=21,11 / fast_pskip=0 / chroma_qp_offset=-3 / threads=12 / lookahead_threads=3 / sliced_threads=0 / nr=0 / decimate=0 / interlaced=0 / bluray_compat=0 / constrained_intra=0 / bframes=12 / b_pyramid=2 / b_adapt=2 / b_bias=0 / direct=3 / weightb=1 / open_gop=0 / weightp=2 / keyint=240 / keyint_min=23 / scenecut=40 / intra_refresh=0 / rc_lookahead=40 / rc=2pass / mbtree=0 / bitrate=1842 / ratetol=1.0 / qcomp=0.60 / qpmin=0 / qpmax=51 / qpstep=4 / cplxblur=20.0 / qblur=0.5 / vbv_maxrate=50000 / vbv_bufsize=62500 / nal_hrd=none / filler=0 / ip_ratio=1.40 / pb_ratio=1.30 / aq=1:1.00
Язык : English
Default : Да
Forced : Нет
Цветовой диапазон : Limited
Основные цвета : BT.709
Характеристики трансфера : BT.709
Коэффициенты матрицы : BT.709

Аудио #1
Идентификатор : 2
Формат : AC-3
Формат/Информация : Audio Coding 3
Расширение режима : CM (complete main)
Параметр Endianness формата : Big
Идентификатор кодека : A_AC3
Продолжительность : 1 ч. 53 м.
Вид битрейта : Постоянный
Битрейт : 384 Кбит/сек
Каналы : 6 каналов
Расположение каналов : Front: L C R, Side: L R, LFE
Частота : 48,0 КГц
Частота кадров : 31,250 кадров/сек (1536 spf)
Метод сжатия : С потерями
Размер потока : 311 Мбайт (14%)
Заголовок : iTunes
Язык : Russian
Default : Да
Forced : Нет

Аудио #2
Идентификатор : 3
Формат : AC-3
Формат/Информация : Audio Coding 3
Расширение режима : CM (complete main)
Параметр Endianness формата : Big
Идентификатор кодека : A_AC3
Продолжительность : 1 ч. 53 м.
Вид битрейта : Постоянный
Битрейт : 448 Кбит/сек
Каналы : 6 каналов
Расположение каналов : Front: L C R, Side: L R, LFE
Частота : 48,0 КГц
Частота кадров : 31,250 кадров/сек (1536 spf)
Метод сжатия : С потерями
Размер потока : 363 Мбайт (17%)
Язык : English
Default : Нет
Forced : Нет

Текст #1
Идентификатор : 4
Формат : UTF-8
Идентификатор кодека : S_TEXT/UTF8
Идентификатор кодека/Информация : UTF-8 Plain Text
Язык : Russian
Default : Нет
Forced : Нет

Текст #2
Идентификатор : 5
Формат : UTF-8
Идентификатор кодека : S_TEXT/UTF8
Идентификатор кодека/Информация : UTF-8 Plain Text
Язык : English
Default : Нет
Forced : Нет





   Похожие торренты   Торрент   Размер 
В этой теме нет новых непрочитанных сообщений. Чудо / Wonder (Стивен Чбоски) [2017, драма, семейный, BDRip] DUB / Детское

611 | 24

1.41 ГБ

В этой теме нет новых непрочитанных сообщений. Чудо / Wonder (Стивен Чбоски) [2017, драма, семейный, BDRip] DUB / Детское

66 | 9

746.91 МБ

В этой теме нет новых непрочитанных сообщений. Чудо / Wonder ( Стивен Чбоски) [2017, Драма, семейный, BDRip-AVC] DUB / Детское

75 | 3

1.41 ГБ

В этой теме нет новых непрочитанных сообщений. Чудо / Wonder (Стивен Чбоски) [2017, драма, семейный, HDRip] DUB

153 | 5

1.37 ГБ

В этой теме нет новых непрочитанных сообщений. В поисках мамы / Finding Mother (Руслан Акун) [2017, драма, семейный, DVBRip] / Детское

28 | 1

1.46 ГБ

В этой теме нет новых непрочитанных сообщений. Уличный кот по кличке Боб / A Street Cat Named Bob (Роджер Споттисвуд) [2016, драма, комедия, семейный, биография, BDRip] MVO / Детское

190 | 50

2.18 ГБ

В этой теме нет новых непрочитанных сообщений. Ноно – мальчик-детектив / Nono, het Zigzag Kind (Винсент Баль) [2012, драма, приключения, семейный, WEBDLRip] VO / Детское

5 | 0

1.47 ГБ




Вы не можете начинать темы
Вы не можете отвечать на сообщения
Вы не можете редактировать свои сообщения
Вы не можете удалять свои сообщения
Вы не можете добавлять вложения

Перейти:  
Для Мосгорсуда, Роскомнадзора и рекламодателей: mosgorsud-torrent[собачка]yandex.ru
 Вход
ppkBB3cker v.2 © 2008-2014 @ PPK
[ Time : 0.018s | 19 Queries | GZIP : Off ]

Торрент трекер RS-torrent.com
cron