img image001 image001 image001 image001 image001 image001 image001 image001 image001 image001 image001 image001 image001 image001 image001 image001
Planets Sun Sun Sun
Статистика раздачи
Автор: mari | Размер: 1.46 ГБ | Добавлен: 05 дек 2018
Раздают: 0    Качают: 0
Скачать торрент
Скачать торрент

СообщениеДобавлено: 05 дек 2018 

Реальные упыри / What We Do in the Shadows


Перевод: Профессиональный (полное дублирование), субтитры: отсутствуют
Формат: HDRip-AVC, MKV, H.264, AC3
Страна: Новая Зеландия, США
Режиссер: Джемейн Клемент, Тайка Вайтити
Жанр: комедия, ужасы
Продолжительность: 01:25:32
Год выпуска: 2014
В ролях: Джемейн Клемент, Тайка Вайтити, Кори Гонсалес-Макьюэр, Джонни Бра, Стю Резерфорд, Бен Франшам, Джеки ван Бик, Елена Стейко, Джейсон Хойт, Карен О'Лири, Майк Миноуг, Челси Престон Крейфорд, Ян Харкорт, Этель Робинсон, Брэд Хардинг

Описание: История жизни Виаго, Дикона и Владислава — трёх соседей и по совместительству бессмертных вампиров, которые всего лишь пытаются выжить в современном мире, где есть арендная плата, фейсконтроль в ночных клубах, губительный солнечный свет и другие неприятности.



Видео: 1024x576 (16:9), 23.976 fps, AVC MPEG4 (x264), , ~2055 kbps avg, 0.145 bit/pixel
Аудио: 48 kHz, AC3 Dolby Digital, 3/2 (L,C,R,l,r) + LFE ch, ~384 kbps
General
Unique ID : 265597486648496195761865499370313730334 (0xC7D0371BDF0FAC2E643FA0075503C91E)
Complete name : C:\Users\123\Desktop\What.We.Do.in.the.Shadows.2014_[tfile.ru].mkv
Format : Matroska
Format version : Version 4 / Version 2
File size : 1.46 GiB
Duration : 1h 25mn
Overall bit rate mode : Constant
Overall bit rate : 2 439 Kbps
Movie name : Реальные упыри | What We Do in the Shadows (2014) - Release by whip93
Encoded date : UTC 2018-07-25 20:03:11
Writing application : Lavf56.36.100
Writing library : Lavf56.36.100

Video
ID : 2
Format : AVC
Format/Info : Advanced Video Codec
Format profile :
Format settings, CABAC : Yes
Format settings, ReFrames : 2 frames
Format settings, GOP : M=1, N=25
Codec ID : V_MPEG4/ISO/AVC
Duration : 1h 25mn
Bit rate mode : Constant
Bit rate : 2 055 Kbps
Width : 1 024 pixels
Height : 576 pixels
Display aspect ratio : 16:9
Frame rate mode : Constant
Frame rate : 23.976 fps
Color space : YUV
Chroma subsampling : 4:2:0
Bit depth : 8 bits
Scan type : Progressive
Bits/(Pixel*Frame) : 0.145
Stream size : 1.20 GiB (82%)
Title : Encoded by whip93
Language : English
Default : Yes
Forced : No
DURATION : 01:25:31.752000000
NUMBER_OF_FRAMES : 123039
NUMBER_OF_BYTES : 2494567137
_STATISTICS_WRITING_APP : mkvmerge v22.0.0 ('At The End Of The World') 64-bit
_STATISTICS_WRITING_DATE_UTC : 2018-07-25 20:03:11
_STATISTICS_TAGS : BPS DURATION NUMBER_OF_FRAMES NUMBER_OF_BYTES

Audio
ID : 1
Format : AC-3
Format/Info : Audio Coding 3
Mode extension : CM (complete main)
Format settings, Endianness : Big
Codec ID : A_AC3
Duration : 1h 25mn
Bit rate mode : Constant
Bit rate : 384 Kbps
Channel(s) : 6 channels
Channel positions : Front: L C R, Side: L R, LFE
Sampling rate : 48.0 KHz
Bit depth : 32 bits
Compression mode : Lossy
Stream size : 235 MiB (16%)
Title : Dub (iTunes)
Language : Russian
Default : Yes
Forced : No
DURATION : 01:25:30.080000000
NUMBER_OF_FRAMES : 160315
NUMBER_OF_BYTES : 246243840
_STATISTICS_WRITING_APP : mkvmerge v22.0.0 ('At The End Of The World') 64-bit
_STATISTICS_WRITING_DATE_UTC : 2018-07-25 20:03:11
_STATISTICS_TAGS : BPS DURATION NUMBER_OF_FRAMES NUMBER_OF_BYTES










   Похожие торренты   Торрент   Размер 
В этой теме нет новых непрочитанных сообщений. Реальные упыри / What We Do in the Shadows (2014) HDRip | P2

3553 | 103

1.37 ГБ

В этой теме нет новых непрочитанных сообщений. Реальные упыри / What We Do in the Shadows (2014) HDRip от Generalfilm | КПК | P2

88 | 38

289.32 МБ

В этой теме нет новых непрочитанных сообщений. Реальные упыри / What We Do in the Shadows (2014) HDRip от Scarabey | iTunes

455 | 38

744.66 МБ

В этой теме нет новых непрочитанных сообщений. Что мы делаем в темноте / Реальные упыри / What We Do in the Shadows (2014) HDRip | P2

1035 | 129

679.81 МБ

В этой теме нет новых непрочитанных сообщений. Что мы делаем в темноте / Реальные упыри / What We Do in the Shadows (2014) HDRip от Scarabey | iTunes

1534 | 40

1.44 ГБ

В этой теме нет новых непрочитанных сообщений. Реальные упыри / What We Do in the Shadows (2014) BDRip-AVC | P2

1186 | 122

1.66 ГБ

В этой теме нет новых непрочитанных сообщений. Реальные упыри / What We Do in the Shadows (2014) BDRip 1080p | P2

1176 | 70

6.67 ГБ




Вы не можете начинать темы
Вы не можете отвечать на сообщения
Вы не можете редактировать свои сообщения
Вы не можете удалять свои сообщения
Вы не можете добавлять вложения

Перейти:  
Для Мосгорсуда, Роскомнадзора и рекламодателей: mosgorsud-torrent[собачка]yandex.ru
 Вход
ppkBB3cker v.2 © 2008-2014 @ PPK
[ Time : 0.035s | 17 Queries | GZIP : Off ]

Торрент трекер RS-torrent.com
cron