img image001 image001 image001 image001 image001 image001 image001 image001 image001 image001 image001 image001 image001 image001 image001 image001
Planets Sun Sun Sun
Статистика раздачи
Автор: mari | Размер: 2.18 ГБ | Добавлен: 05 дек 2018
Раздают: 157    Качают: 10
Скачать торрент
Скачать торрент

СообщениеДобавлено: 05 дек 2018 

Миссия невыполнима: Последствия / Mission: Impossible - Fallout


Перевод: Профессиональный (полное дублирование) iTunes, субтитры: отсутствуют
Формат: HDRip-AVC, MKV, H.264, AC3
Страна: США, Китай, Франция, Норвегия
Режиссер: Кристофер МакКуорри
Жанр: боевик, триллер, приключения
Продолжительность: 02:27:24
Год выпуска: 2018
В ролях: Том Круз, Ребекка Фергюсон (II), Генри Кавилл, Мишель Монахэн, Ванесса Кирби, Уэс Бентли, Саймон Пегг, Анджела Бассетт, Алек Болдуин, Винг Рэймс

Описание: Итан Хант и его команда, а также недавно примкнувшие к ним союзники, вынуждены действовать наперегонки со временем, когда новая миссия идет не по плану.



Видео: 1024x432 (2.40:1), 23.976 fps, AVC MPEG4 (x264), , ~1735 kbps avg, 0.164 bit/pixel
Аудио: 48 kHz, AC3 Dolby Digital, 3/2 (L,C,R,l,r) + LFE ch, ~384 kbps
General
Unique ID : 173331691849004989718515338898864179437 (0x826678355E3094DDEAF97C08BC5588ED)
Complete name : C:\Users\123\Desktop\Миссия невыполнима. Последствия.2018 (AVC)_[tfile.ru].mkv
Format : Matroska
Format version : Version 4 / Version 2
File size : 2.18 GiB
Duration : 2h 27mn
Overall bit rate mode : Constant
Overall bit rate : 2 119 Kbps
Movie name : Mission: Impossible - Fallout (2018)
Encoded date : UTC 2018-11-17 04:14:45
Writing application : Lavf56.36.100
Writing library : Lavf56.36.100

Video
ID : 2
Format : AVC
Format/Info : Advanced Video Codec
Format profile :
Format settings, CABAC : Yes
Format settings, ReFrames : 2 frames
Format settings, GOP : M=1, N=25
Codec ID : V_MPEG4/ISO/AVC
Duration : 2h 27mn
Bit rate mode : Constant
Bit rate : 1 735 Kbps
Width : 1 024 pixels
Height : 432 pixels
Display aspect ratio : 2.40:1
Frame rate mode : Constant
Frame rate : 23.976 fps
Color space : YUV
Chroma subsampling : 4:2:0
Bit depth : 8 bits
Scan type : Progressive
Bits/(Pixel*Frame) : 0.164
Stream size : 1.74 GiB (80%)
Language : English
Default : Yes
Forced : No

Audio
ID : 1
Format : AC-3
Format/Info : Audio Coding 3
Mode extension : CM (complete main)
Format settings, Endianness : Big
Codec ID : A_AC3
Duration : 2h 27mn
Bit rate mode : Constant
Bit rate : 384 Kbps
Channel(s) : 6 channels
Channel positions : Front: L C R, Side: L R, LFE
Sampling rate : 48.0 KHz
Bit depth : 32 bits
Compression mode : Lossy
Stream size : 405 MiB (18%)
Title : Дублированный
Language : Russian
Default : Yes
Forced : No












   Похожие торренты   Торрент   Размер 
В этой теме нет новых непрочитанных сообщений. Миссия невыполнима: Последствия / Mission: Impossible - Fallout (Кристофер МакКуорри) [2018, боевик, триллер, приключения, HDRip] DUB / Боевики /Action

17 | 4

2.18 ГБ

В этой теме нет новых непрочитанных сообщений. Миссия невыполнима: Последствия / Mission: Impossible - Fallout (Кристофер МакКуорри) [2018, боевик, триллер, приключения, HDRip] DUB / Боевики /Action

95 | 6

1.47 ГБ

В этой теме нет новых непрочитанных сообщений. Миссия невыполнима: Последствия / Mission: Impossible - Fallout (Кристофер МакКуорри) [2018, боевик, триллер, приключения, WEBDLRip] DUB / Боевики /Action

337 | 21

1.46 ГБ

В этой теме нет новых непрочитанных сообщений. Миссия невыполнима: Последствия / Mission: Impossible - Fallout (Кристофер МакКуорри) [2018, Боевик, триллер, приключения, TS] DUB

496 | 10

1.37 ГБ

В этой теме нет новых непрочитанных сообщений. Миссия невыполнима: Последствия / Mission: Impossible - Fallout (Кристофер МакКуорри) [2018, приключения, боевик, триллер, HDTVRip] DUB

5277 | 223

2.18 ГБ

В этой теме нет новых непрочитанных сообщений. Миссия невыполнима: Последствия / Mission: Impossible - Fallout (Кристофер МакКуорри) [2018, приключения, боевик, триллер, HDTVRip] DUB

338 | 14

1.46 ГБ

В этой теме нет новых непрочитанных сообщений. Миссия невыполнима / Mission: Impossible (1996) HDRip | Гаврилов

321 | 38

1.46 ГБ




Вы не можете начинать темы
Вы не можете отвечать на сообщения
Вы не можете редактировать свои сообщения
Вы не можете удалять свои сообщения
Вы не можете добавлять вложения

Перейти:  
Для Мосгорсуда, Роскомнадзора и рекламодателей: mosgorsud-torrent[собачка]yandex.ru
 Вход
ppkBB3cker v.2 © 2008-2014 @ PPK
[ Time : 0.022s | 15 Queries | GZIP : Off ]

Торрент трекер RS-torrent.com
cron