img image001 image001 image001 image001 image001 image001 image001 image001 image001 image001 image001 image001 image001 image001 image001 image001
Planets Sun Sun Sun
Статистика раздачи
Автор: mari | Размер: 1.46 ГБ | Добавлен: 13 мар 2019
Раздают: 87    Качают: 8
Скачать торрент
Скачать торрент

СообщениеДобавлено: 13 мар 2019 

Уровень 16 / Level 16


Перевод: Любительский (многоголосый закадровый) [@MUZOBOZ@], субтитры: отсутствуют
Формат: WEBDLRip-AVC, MKV, H.264, AC3
Страна: Канада
Режиссер: Данишка Эстерхази
Жанр: фантастика
Продолжительность: 01:42:03
Год выпуска: 2018
В ролях: Кэти Дуглас, Amalia Williamson, Сара Каннинг, Джозетт Хэлперт, Питер Аутербридж, Джоэль Фэрроу, Кейт Виккери, Сара Беттенкур-ДаСилва, Селина Мартин

Описание: Могущественные и влиятельные особы, столкнувшиеся с бездетностью, прибегают к услугам специального учреждения - Академии Весталис, в котором проходят обучение юные воспитанницы. Из них тут делают покорных и прилежных женщин. Обучение состоит из шестнадцати уровней, по завершении которых девушек берут в семьи. Вот только процесс обучения довольно жесток. Одна из воспитанниц Академии - Вивьен - не желает становится подопытным кроликом...



Видео: 1024x432 (2.40:1), 23.976 fps, AVC MPEG4 (x264), , ~1662 kbps avg, 0.157 bit/pixel
Аудио: 48 kHz, AC3 Dolby Digital, 3/2 (L,C,R,l,r) + LFE ch, ~384 kbps

РЕКЛАМЫ НЕТ !

General
Unique ID : 8747550982169089999099297040428285654 (0x694B78FC7B9777BD7811D732BD5BED6)
Complete name : C:\Users\123\Desktop\Level 16 2018.x264.WEBDLRip-AVC_[tfile.ru].mkv
Format : Matroska
Format version : Version 4 / Version 2
File size : 1.46 GiB
Duration : 1h 42mn
Overall bit rate mode : Constant
Overall bit rate : 2 046 Kbps
Movie name : Level 16 / 2018 / kosmoaelita
Encoded date : UTC 2019-03-13 10:35:12
Writing application : Lavf56.36.100
Writing library : Lavf56.36.100

Video
ID : 2
Format : AVC
Format/Info : Advanced Video Codec
Format profile :
Format settings, CABAC : Yes
Format settings, ReFrames : 2 frames
Format settings, GOP : M=1, N=25
Codec ID : V_MPEG4/ISO/AVC
Duration : 1h 42mn
Bit rate mode : Constant
Bit rate : 1 662 Kbps
Width : 1 024 pixels
Height : 432 pixels
Display aspect ratio : 2.40:1
Frame rate mode : Constant
Frame rate : 23.976 fps
Color space : YUV
Chroma subsampling : 4:2:0
Bit depth : 8 bits
Scan type : Progressive
Bits/(Pixel*Frame) : 0.157
Stream size : 1.16 GiB (79%)
Title : http://kosmoaelita.com/viewtopic.php?t=2681
Language : English
Default : Yes
Forced : No
DURATION : 01:42:03.749000000
NUMBER_OF_FRAMES : 146823
NUMBER_OF_BYTES : 3491992977
_STATISTICS_WRITING_APP : mkvmerge v7.4.0 (''Circles'') 64bit built on Dec 12 2014 12:19:56
_STATISTICS_WRITING_DATE_UTC : 2019-03-13 10:35:12
_STATISTICS_TAGS : BPS DURATION NUMBER_OF_FRAMES NUMBER_OF_BYTES

Audio
ID : 1
Format : AC-3
Format/Info : Audio Coding 3
Mode extension : CM (complete main)
Format settings, Endianness : Big
Codec ID : A_AC3
Duration : 1h 42mn
Bit rate mode : Constant
Bit rate : 384 Kbps
Channel(s) : 6 channels
Channel positions : Front: L C R, Side: L R, LFE
Sampling rate : 48.0 KHz
Bit depth : 32 bits
Compression mode : Lossy
Stream size : 280 MiB (19%)
Language : Russian
Default : Yes
Forced : No
DURATION : 01:42:03.776000000
NUMBER_OF_FRAMES : 191368
NUMBER_OF_BYTES : 293941248
_STATISTICS_WRITING_APP : mkvmerge v7.4.0 (''Circles'') 64bit built on Dec 12 2014 12:19:56
_STATISTICS_WRITING_DATE_UTC : 2019-03-13 10:35:12
_STATISTICS_TAGS : BPS DURATION NUMBER_OF_FRAMES NUMBER_OF_BYTES












   Похожие торренты   Торрент   Размер 
В этой теме нет новых непрочитанных сообщений. Уровень 16 / Level 16 (Данишка Эстерхази) [2018, фантастика, WEBDLRip] 2хMVO

102 | 5

1.42 ГБ

В этой теме нет новых непрочитанных сообщений. Уровень страха / Fear Level (Аллен) [2018, ужасы, WEBDLRip] MVO / Мистика

4 | 0

1.37 ГБ

В этой теме нет новых непрочитанных сообщений. Уровень / The Level [S01] (2016) HDRip от Generalfilm | КПК | Р

0 | 0

1.07 ГБ

В этой теме нет новых непрочитанных сообщений. Запретное могущество / Forbidden Power (Пол Кириази) [2018, фантастика, WEBDLRip] MVO / Фантастика

45 | 0

1.37 ГБ

В этой теме нет новых непрочитанных сообщений. Клара / Clara (Акаш Шерман ) [2018, фантастика , WEBDLRip] MVO / Фантастика

27 | 0

1.45 ГБ

В этой теме нет новых непрочитанных сообщений. Оккупация / Occupation (Люк Спарк) [2018, фантастика, боевик, WEBDLRip] МVO / Фантастика

59 | 1

2.05 ГБ

В этой теме нет новых непрочитанных сообщений. Клара / Clara (Акаш Шерман) [2018, фантастика, WEBDLRip] MVO / Фантастика

58 | 1

2.04 ГБ




Вы не можете начинать темы
Вы не можете отвечать на сообщения
Вы не можете редактировать свои сообщения
Вы не можете удалять свои сообщения
Вы не можете добавлять вложения

Перейти:  
Для Мосгорсуда, Роскомнадзора и рекламодателей: mosgorsud-torrent[собачка]yandex.ru
Регистрация  Вход
ppkBB3cker v.2 © 2008-2014 @ PPK
[ Time : 0.032s | 16 Queries | GZIP : Off ]

cron