img image001 image001 image001 image001 image001 image001 image001 image001 image001 image001 image001 image001 image001 image001 image001 image001
Planets Sun Sun Sun
Статистика раздачи
Автор: mari | Размер: 1.88 ГБ | Добавлен: 15 апр 2019
Раздают: 0    Качают: 0
Скачать торрент
Скачать торрент

СообщениеДобавлено: 15 апр 2019 

Фантазм 3 / Phantasm III: Lord of the Dead


Перевод: Авторский (одноголосый) М.Яроцкий, субтитры: английские
Формат: BDRip-AVC, MKV, H.264, AC3
Страна: США
Режиссер: Дон Коскарелли
Жанр: ужасы, фантастика, фэнтези, боевик
Продолжительность: 01:31:14
Год выпуска: 1994

В ролях: Рэджи Бэннистер, А. Майкл Болдуин, Билл Торнбери, Глория Линн Генри, Кевин Коннорс, Синди Амбуэль, Джон Дэвис Чэндлер, Брукс Гарднер, Энгус Скримм, Ирен Росин

Описание: Борьба Майка и Реджи с кошмарным «Верзилой», сеющим смерть и разрушения на нашей планете, продолжается… Убийца и его ужасные зомби опустошают города, оставляя за собою смерть и мрак. Отважные друзья идут по следу этой нечисти, чтобы спасти цивилизацию от неминуемой гибели.



Видео: 1920x1080 (16:9), 23,976 fps, MPEG4 AVC (x264), ~2500 kbps avg, 0.050 bit/pixel
Аудио: 48 kHz, AC3 Dolby Digital, 3/2 (L,C,R) + L R, LFE ch, 448 kbps
Релиз-группа:
Общее
Уникальный идентификатор : 170569957615481403096834523935893526818 (0x80529432B05DDFEFB2E1604D77DE9922)
Полное имя : D:\VIDEO\Заказы\Фантазм 3\Phantasm III.1994.AVO.Kyberpunk.mkv
Формат : Matroska
Версия формата : Version 4
Размер файла : 1,88 Гбайт
Продолжительность : 1 ч. 31 м.
Общий поток : 2948 Кбит/сек
Дата кодирования : UTC 2019-04-13 07:27:19
Программа кодирования : mkvmerge v14.0.0 (''Flow'') 64bit
Библиотека кодирования : libebml v1.3.4 + libmatroska v1.4.5

Видео
Идентификатор : 1
Формат : AVC
Формат/Информация : Advanced Video Codec
Профиль формата :
Настройки формата : CABAC / 4 Ref Frames
Параметр CABAC формата : Да
Параметр RefFrames формата : 4 кадра
Идентификатор кодека : V_MPEG4/ISO/AVC
Продолжительность : 1 ч. 31 м.
Битрейт : 2500 Кбит/сек
Ширина : 1920 пикселей
Высота : 1080 пикселей
Соотношение сторон : 16:9
Режим частоты кадров : Постоянный
Частота кадров : 23,976 (24000/1001) кадра/сек
Частота кадров в оригинале : 23,976 (23976/1000) кадра/сек
Цветовое пространство : YUV
Субдискретизация насыщенности : 4:2:0
Битовая глубина : 8 бит
Тип развёртки : Прогрессивная
Бит/(Пиксели*Кадры) : 0.050
Размер потока : 1,59 Гбайт (85%)
Библиотека кодирования : x264 core 152 r2851M ba24899
Настройки программы : cabac=1 / ref=4 / deblock=1:-1:-1 / analyse=0x3:0x113 / me=umh / subme=9 / psy=1 / psy_rd=1.00:0.15 / mixed_ref=1 / me_range=24 / chroma_me=1 / trellis=2 / 8x8dct=1 / cqm=0 / deadzone=21,11 / fast_pskip=1 / chroma_qp_offset=-3 / threads=32 / lookahead_threads=4 / sliced_threads=0 / nr=0 / decimate=1 / interlaced=0 / bluray_compat=0 / constrained_intra=0 / bframes=3 / b_pyramid=2 / b_adapt=2 / b_bias=0 / direct=3 / weightb=1 / open_gop=0 / weightp=2 / keyint=250 / keyint_min=25 / scenecut=40 / intra_refresh=0 / rc_lookahead=50 / rc=2pass / mbtree=1 / bitrate=2500 / ratetol=1.0 / qcomp=0.60 / qpmin=0 / qpmax=69 / qpstep=4 / cplxblur=20.0 / qblur=0.5 / vbv_maxrate=31250 / vbv_bufsize=31250 / nal_hrd=none / filler=0 / ip_ratio=1.40 / aq=3:1.00
Default : Да
Forced : Нет

Аудио
Идентификатор : 2
Формат : AC-3
Формат/Информация : Audio Coding 3
Коммерческое название : Dolby Digital
Идентификатор кодека : A_AC3
Продолжительность : 1 ч. 31 м.
Вид битрейта : Постоянный
Битрейт : 448 Кбит/сек
Каналы : 6 каналов
Channel layout : L R C LFE Ls Rs
Частота : 48,0 КГц
Частота кадров : 31,250 кадров/сек (1536 SPF)
Битовая глубина : 16 бит
Метод сжатия : С потерями
Размер потока : 292 Мбайт (15%)
Заголовок : AVO Михаил Яроцкий
Язык : Russian
ServiceKind/String : Complete Main
Default : Да
Forced : Нет















   Похожие торренты   Торрент   Размер 
В этой теме нет новых непрочитанных сообщений. Фантазм 2 / Phantasm II (Дон Коскарелли) [1988, ужасы, фантастика, фэнтези, боевик, триллер, BDRip-AVC] AVO

0 | 0

2.63 ГБ

В этой теме нет новых непрочитанных сообщений. Фантазм / Phantasm (Дон Коскарелли) [1979, фантастика, ужасы, BDRip-AVC] AVO

4 | 0

2.12 ГБ

В этой теме нет новых непрочитанных сообщений. Фантазм 3 / Phantasm III: Lord of the Dead (1994) BDRip 720p | P, A

31 | 21

6.34 ГБ

В этой теме нет новых непрочитанных сообщений. Фантазм 3 / Phantasm III: Lord of the Dead (1994) WEB-DL 1080p | P, A

2 | 0

4.63 ГБ

В этой теме нет новых непрочитанных сообщений. Фантазм 3 / Phantasm III: Lord of the Dead (1993) DVDRip-AVC

11 | 11

2.18 ГБ

В этой теме нет новых непрочитанных сообщений. Фантазм 3 / Phantasm III: Lord of the Dead (1993) HDTVRip-AVC от NNM-CLUB | P, A

14 | 5

1.98 ГБ

В этой теме нет новых непрочитанных сообщений. Фантазм 3 / Phantasm III: Lord of the Dead (1993) HDTV 1080p | P, A

49 | 10

6.97 ГБ




Вы не можете начинать темы
Вы не можете отвечать на сообщения
Вы не можете редактировать свои сообщения
Вы не можете удалять свои сообщения
Вы не можете добавлять вложения

Перейти:  
Для Мосгорсуда, Роскомнадзора и рекламодателей: mosgorsud-torrent[собачка]yandex.ru
Регистрация  Вход
ppkBB3cker v.2 © 2008-2014 @ PPK
[ Time : 0.024s | 17 Queries | GZIP : Off ]

cron