img image001 image001 image001 image001 image001 image001 image001 image001 image001 image001 image001 image001 image001 image001 image001 image001
Planets Sun Sun Sun
Статистика раздачи
Автор: mari | Размер: 2.5 ГБ | Добавлен: 15 апр 2019
Раздают: 12    Качают: 1
Скачать торрент
Скачать торрент

СообщениеДобавлено: 15 апр 2019 

Хулиганьё / Малолетние преступники / The Young Offenders


Перевод: Авторский (одноголосый) М.Яроцкий, субтитры: английские
Формат: BDRip-AVC, MKV, H.264, AC3
Страна: Ирландия
Режиссер: Питер Футт
Жанр: драма, комедия, криминал, приключения
Продолжительность: 01:23:47
Год выпуска: 2016

В ролях: Алекс Мёрфи, Крис Уолли, Хилари Роуз, Доминик Макхейл, П.Дж. Галлахер, Шэйн Кэйси, Паскаль Скотт

Описание: Незадачливые подростки Конор и Джок проезжают 160 км на украденных велосипедах, чтобы найти большую упаковку кокаина стоимостью 7 миллионов евро. Полиция едет следом за ними.



Видео: 1024x428(2,40:1), 24,000 fps, High@L4 MPEG4 AVC (x264), ~3289 kbps avg, 0.313 bit/pixel
Аудио #1: Русский: 48 kHz, AC3 Dolby Digital, 3/2 (L,C,R) + L R, LFE ch, 448 kbps [Авторский (одноголосый), Михаил Яроцкий]
Аудио #2: Английский: 48 kHz, AC3 Dolby Digital, 3/2 (L,C,R) + L R, LFE ch, 448 kbps [Оригинал]
Релиз-группа:
Общее
Уникальный идентификатор : 148925515545185798179272183397730975021 (0x700A02D00E423BD92D7E0BC9B22F7D2D)
Полное имя : D:\VIDEO\Мои переводы\The.Young.Offenders.2016.BDRip.AVO.Kyberpunk.Eng.Sub.x264.mkv
Формат : Matroska
Версия формата : Version 2
Размер файла : 2,50 Гбайт
Продолжительность : 1 ч. 23 м.
Общий поток : 4270 Кбит/сек
Название фильма : The Young Offenders 2016
Дата кодирования : UTC 2019-03-04 15:56:10
Программа кодирования : mkvmerge v31.0.0 (''Dolores In A Shoestand'') 64-bit
Библиотека кодирования : libebml v1.3.6 + libmatroska v1.4.9
Обложка : Yes
Attachments : cover.jpg

Видео
Идентификатор : 1
Формат : AVC
Формат/Информация : Advanced Video Codec
Профиль формата : High@L4
Настройки формата : CABAC / 14 Ref Frames
Параметр CABAC формата : Да
Параметр RefFrames формата : 14 кадров
Идентификатор кодека : V_MPEG4/ISO/AVC
Продолжительность : 1 ч. 23 м.
Битрейт : 3289 Кбит/сек
Ширина : 1024 пикселя
Высота : 428 пикселей
Соотношение сторон : 2,40:1
Режим частоты кадров : Постоянный
Частота кадров : 24,000 кадра/сек
Цветовое пространство : YUV
Субдискретизация насыщенности : 4:2:0
Битовая глубина : 8 бит
Тип развёртки : Прогрессивная
Бит/(Пиксели*Кадры) : 0.313
Размер потока : 1,93 Гбайт (77%)
Заголовок : The.Young.Offenders.2016
Библиотека кодирования : x264 core 148 r2708 86b7198
Настройки программы : cabac=1 / ref=14 / deblock=1:-3:-3 / analyse=0x3:0x133 / me=umh / subme=10 / psy=1 / psy_rd=1.00:0.00 / mixed_ref=1 / me_range=32 / chroma_me=1 / trellis=2 / 8x8dct=1 / cqm=0 / deadzone=21,11 / fast_pskip=0 / chroma_qp_offset=-2 / threads=12 / lookahead_threads=2 / sliced_threads=0 / nr=0 / decimate=0 / interlaced=0 / bluray_compat=0 / constrained_intra=0 / bframes=8 / b_pyramid=2 / b_adapt=2 / b_bias=0 / direct=3 / weightb=1 / open_gop=0 / weightp=2 / keyint=240 / keyint_min=24 / scenecut=40 / intra_refresh=0 / rc_lookahead=60 / rc=crf / mbtree=0 / crf=16.0 / qcomp=0.60 / qpmin=0 / qpmax=69 / qpstep=4 / vbv_maxrate=20000 / vbv_bufsize=25000 / crf_max=0.0 / nal_hrd=none / filler=0 / ip_ratio=1.40 / pb_ratio=1.30 / aq=2:1.00
Язык : English
Default : Да
Forced : Нет
Цветовой диапазон : Limited
Основные цвета : BT.709
Характеристики трансфера : BT.709
Коэффициенты матрицы : BT.709

Аудио #1
Идентификатор : 2
Формат : AC-3
Формат/Информация : Audio Coding 3
Коммерческое название : Dolby Digital
Идентификатор кодека : A_AC3
Продолжительность : 1 ч. 23 м.
Вид битрейта : Постоянный
Битрейт : 448 Кбит/сек
Каналы : 6 каналов
Channel layout : L R C LFE Ls Rs
Частота : 48,0 КГц
Частота кадров : 31,250 кадров/сек (1536 SPF)
Битовая глубина : 16 бит
Метод сжатия : С потерями
Размер потока : 268 Мбайт (10%)
Заголовок : AVO, М.Яроцкий (kyberpunk)
Язык : Russian
ServiceKind/String : Complete Main
Default : Да
Forced : Нет

Аудио #2
Идентификатор : 3
Формат : AC-3
Формат/Информация : Audio Coding 3
Коммерческое название : Dolby Digital
Идентификатор кодека : A_AC3
Продолжительность : 1 ч. 23 м.
Вид битрейта : Постоянный
Битрейт : 448 Кбит/сек
Каналы : 6 каналов
Channel layout : L R C LFE Ls Rs
Частота : 48,0 КГц
Частота кадров : 31,250 кадров/сек (1536 SPF)
Битовая глубина : 16 бит
Метод сжатия : С потерями
Размер потока : 268 Мбайт (10%)
Язык : English
ServiceKind/String : Complete Main
Default : Нет
Forced : Нет

Текст
Идентификатор : 4
Формат : UTF-8
Идентификатор кодека : S_TEXT/UTF8
Идентификатор кодека/Информация : UTF-8 Plain Text
Язык : English
Default : Нет
Forced : Нет

Меню
00:00:00.000 : en:Chapter 1
00:14:47.542 : en:Chapter 2
00:33:23.500 : en:Chapter 3
00:50:48.500 : en:Chapter 4
01:05:33.750 : en:Chapter 5
01:20:03.125 : en:Chapter 6










   Похожие торренты   Торрент   Размер 
В этой теме нет новых непрочитанных сообщений. Приключения Тома Сойера / Tom and Huck (Питер Хьюитт) [1995, драма, комедия, приключения, семейный, WEBDLRip-AVC] MVO / Приключения

1 | 2

2.93 ГБ

В этой теме нет новых непрочитанных сообщений. 30 безумных желаний / Then Came You (Питер Хатчингс) [2018, драма, комедия, приключения, WEBDLRip] MVO

804 | 38

1.46 ГБ

В этой теме нет новых непрочитанных сообщений. Мастер-шпион / MeesterSpion (Питер ван Рийн) [2016, приключения, комедия, семейный, DVDRip] MVO / Приключения

0 | 1

1.43 ГБ

В этой теме нет новых непрочитанных сообщений. День патриота / Patriots Day ( Питер Берг) [2016, триллер, драма, криминал, история, BDRip] MVO

0 | 62

2.19 ГБ

В этой теме нет новых непрочитанных сообщений. День патриота / Patriots Day ( Питер Берг) [2016, триллер, драма, криминал, история, BDRip] MVO

43 | 8

1.46 ГБ

В этой теме нет новых непрочитанных сообщений. Десять лодок / Десять каноэ / Ten Canoes (Рольф Де Хир, Питер Джигирр) [2006, драма, комедия, приключения, HDRip] MVO

12 | 1

1.46 ГБ

В этой теме нет новых непрочитанных сообщений. Братья Систерс / The Sisters Brothers (Жак Одиар) [2018, драма, комедия, криминал, приключения, вестерн, WEBDLRip] DUB

1187 | 48

1.98 ГБ




Вы не можете начинать темы
Вы не можете отвечать на сообщения
Вы не можете редактировать свои сообщения
Вы не можете удалять свои сообщения
Вы не можете добавлять вложения

Перейти:  
Для Мосгорсуда, Роскомнадзора и рекламодателей: mosgorsud-torrent[собачка]yandex.ru
Регистрация  Вход
ppkBB3cker v.2 © 2008-2014 @ PPK
[ Time : 0.026s | 16 Queries | GZIP : Off ]

cron