img image001 image001 image001 image001 image001 image001 image001 image001 image001 image001 image001 image001 image001 image001 image001 image001
Planets Sun Sun Sun
Статистика раздачи
Автор: mari | Размер: 892.38 МБ | Добавлен: 13 май 2019
Раздают: 416    Качают: 27
Скачать торрент
Скачать торрент

СообщениеДобавлено: 13 май 2019 

Кладбище домашних животных / Pet Sematary


Перевод: Авторский (Хихикающий доктор), субтитры: корейские вшитые
Формат: HDTVRip-AVC, MKV, H.264, MP3
Страна: США
Режиссер: Кевин Колш, Деннис Уидмайер
Жанр: ужасы, триллер
Продолжительность: 01:39:00
Год выпуска: 2019
В ролях: Джейсон Кларк, Эми Саймец, Джон Литгоу, Жете Лоранс, Хьюго Лавуа, Лукас Лавуа, Обсса Ахмед, Алисса Брук Ливайн, Мария Херрера, Фрэнк Скорпион
Описание: Семья Луиса Крида переезжает в сельский дом, который, как выясняется, расположен по соседству с мрачным Кладбищем домашних животных. Именно здесь Луис хоронит кошку, любимицу семьи, погибшую под колесами грузовика. Эта смерть влечет за собой череду чудовищных событий, которые доказывают Кридам, что мертвые должны оставаться мертвыми...



Видео: 1280x534 (2.40:1), 29.970 fps, AVC (x264) , ~ 1 065 kbps, 0.052 bit/pixel
Аудио: 44.100 kHz, MPEG Layer 3, 2 ch, ~192.00 kbps avg
Трейлеры:







медиа инфо

General
Unique ID : 243172782723929128239973049109812133602 (0xB6F15FD8134C0080B6522A7B1AB8BEE2)
Complete name : C:Pet.Sematary.2019.720p.Xixidok.mkv
Format : Matroska
Format version : Version 4 / Version 2
File size : 892 MiB
Duration : 1 h 39 min
Overall bit rate : 1 256 kb/s
Movie name : EVO
Encoded date : UTC 2019-05-12 09:15:42
Writing application : mkvmerge v15.0.0 (''Duel with the Devil'') 64-bit
Writing library : libebml v1.3.5 + libmatroska v1.4.5

Video
ID : 1
Format : AVC
Format/Info : Advanced Video Codec
Format profile :
Format settings : CABAC / 5 Ref Frames
Format settings, CABAC : Yes
Format settings, RefFrames : 5 frames
Codec ID : V_MPEG4/ISO/AVC
Duration : 1 h 39 min
Bit rate : 1 065 kb/s
Width : 1 280 pixels
Height : 534 pixels
Display aspect ratio : 2.40:1
Frame rate mode : Constant
Frame rate : 29.970 (30000/1001) FPS
Original frame rate : 29.970 (29970/1000) FPS
Color space : YUV
Chroma subsampling : 4:2:0
Bit depth : 8 bits
Scan type : Progressive
Bits/(Pixel*Frame) : 0.052
Stream size : 754 MiB (85%)
Writing library : x264 core 157 r2935 545de2f
Encoding settings : cabac=1 / ref=5 / deblock=1:-1:-1 / analyse=0x3:0x133 / me=umh / subme=9 / psy=1 / psy_rd=1.00:0.10 / mixed_ref=1 / me_range=24 / chroma_me=1 / trellis=2 / 8x8dct=1 / cqm=0 / deadzone=21,11 / fast_pskip=1 / chroma_qp_offset=-3 / threads=17 / lookahead_threads=1 / sliced_threads=0 / nr=0 / decimate=1 / interlaced=0 / bluray_compat=0 / constrained_intra=0 / bframes=3 / b_pyramid=2 / b_adapt=2 / b_bias=0 / direct=3 / weightb=1 / open_gop=0 / weightp=2 / keyint=250 / keyint_min=25 / scenecut=40 / intra_refresh=0 / rc_lookahead=60 / rc=2pass / mbtree=1 / bitrate=1065 / ratetol=1.0 / qcomp=0.60 / qpmin=0 / qpmax=69 / qpstep=4 / cplxblur=20.0 / qblur=0.5 / ip_ratio=1.40 / aq=1:1.00
Default : Yes
Forced : No

Audio
ID : 2
Format : MPEG Audio
Format version : Version 1
Format profile : Layer 3
Codec ID : A_MPEG/L3
Codec ID/Hint : MP3
Duration : 1 h 39 min
Bit rate mode : Constant
Bit rate : 192 kb/s
Channel(s) : 2 channels
Sampling rate : 44.1 kHz
Frame rate : 38.281 FPS (1152 SPF)
Compression mode : Lossy
Stream size : 136 MiB (15%)
Default : Yes
Forced : No



   Похожие торренты   Торрент   Размер 
В этой теме нет новых непрочитанных сообщений. Кладбище домашних животных / Pet Sematary (Деннис Уидмайер, Кевин Колш) [2019, ужасы, триллер, HDTVRip] MVO

0 | 0

1.46 ГБ

В этой теме нет новых непрочитанных сообщений. Кладбище домашних животных / Pet Sematary (Кевин Колш, Деннис Уидмайер) [2019, ужасы, триллер, TS] DUB

60 | 3

1.37 ГБ

В этой теме нет новых непрочитанных сообщений. Черные праздники / Holidays (Энтони Скотт Бёрнс, Кевин Колш, Николас МакКарти, Адам Иджипт Мортимер, Гари Шор, Кевин Смит (I), Сара Адина, Скотт Чарльз Стюарт, Деннис Уидмайер) [2016, ужасы, комедия, HDRip] DUB / Мистика

75 | 10

1.46 ГБ

В этой теме нет новых непрочитанных сообщений. Кладбище домашних животных / Pet Sematary (Мэри Ламберт) [1989, ужасы, HDRip] MVO / Мистика

4 | 0

1.46 ГБ

В этой теме нет новых непрочитанных сообщений. Кладбище домашних животных / Pet Sematary (Мэри Ламберт) [1989, ужасы, LowHDRip-AVC] 2xMVO / Мистика

6 | 1

746.29 МБ

В этой теме нет новых непрочитанных сообщений. Кладбище домашних животных / Pet Sematary (1989) BDRip-AVC | P2, A

23 | 0

1.44 ГБ

В этой теме нет новых непрочитанных сообщений. Кладбище домашних животных 2 / Pet Sematary II (1992) WEB-DLRip | Гаврилов

68 | 10

1.46 ГБ




Вы не можете начинать темы
Вы не можете отвечать на сообщения
Вы не можете редактировать свои сообщения
Вы не можете удалять свои сообщения
Вы не можете добавлять вложения

Перейти:  
Для Мосгорсуда, Роскомнадзора и рекламодателей: mosgorsud-torrent[собачка]yandex.ru
Регистрация  Вход
ppkBB3cker v.2 © 2008-2014 @ PPK
[ Time : 0.020s | 20 Queries | GZIP : Off ]

cron