img image001 image001 image001 image001 image001 image001 image001 image001 image001 image001 image001 image001 image001 image001 image001 image001
Planets Sun Sun Sun
Статистика раздачи
Автор: mari | Размер: 1.46 ГБ | Добавлен: 13 май 2019
Раздают: 0    Качают: 0
Скачать торрент
Скачать торрент

СообщениеДобавлено: 13 май 2019 

Не состарится / Never Grow Old


Перевод: Профессиональный (многоголосый закадровый) HDRezka Studio, субтитры: отсутствуют
Формат: HDRip-AVC, MKV, H.264, AC3
Страна: Ирландия
Режиссер: Иван Кэвэна
Жанр: боевик, триллер, драма, вестерн
Продолжительность: 01:40:14
Год выпуска: 2019
В ролях: Джон Кьюсак, Эмиль Хирш, Антония Кэмпбелл-Хьюз, Дэниэл Уэбб, Дебора Франсуа, Пол Рейд, Анн Косенс, Блейк Беррис, Пол Ронан, Тим Ахерн

Описание: В небольшой набожный городок прибывает банда убийц и воров и начинает сеять смерть и хаос. В плюсе остаётся только местный гробовщик, хоронящий жертв. Но в итоге он должен решить, что для него важнее — сохранность семьи или деньги.



Видео: 1024x432 (2.40:1), 23.976 fps, AVC MPEG4 (x264), , ~1898 kbps avg, 0.179 bit/pixel
Аудио: 48 kHz, AC3 Dolby Digital, 2 (L,R) ch, ~192.00 kbps avg
General
Unique ID : 83937882248944194371815872700492465037 (0x3F25D91C5F2D9120E377685139F6C38D)
Complete name : C:\Users\123\Desktop\Never.Grow.Old.2019.HDRip-AVC_[tfile.ru].mkv
Format : Matroska
Format version : Version 4 / Version 2
File size : 1.46 GiB
Duration : 1h 40mn
Overall bit rate mode : Constant
Overall bit rate : 2 090 Kbps
Movie name : Never.Grow.Old.2019.1080p.BDRip by Silverok
Encoded date : UTC 2019-05-11 18:38:43
Writing application : Lavf56.36.100
Writing library : Lavf56.36.100

Video
ID : 2
Format : AVC
Format/Info : Advanced Video Codec
Format profile :
Format settings, CABAC : Yes
Format settings, ReFrames : 2 frames
Format settings, GOP : M=1, N=25
Codec ID : V_MPEG4/ISO/AVC
Duration : 1h 40mn
Bit rate mode : Constant
Bit rate : 1 898 Kbps
Width : 1 024 pixels
Height : 432 pixels
Display aspect ratio : 2.40:1
Frame rate mode : Constant
Frame rate : 23.976 fps
Color space : YUV
Chroma subsampling : 4:2:0
Bit depth : 8 bits
Scan type : Progressive
Bits/(Pixel*Frame) : 0.179
Stream size : 1.30 GiB (89%)
Title : BDRip.1080p by Silverok
Default : Yes
Forced : No
DURATION : 01:40:14.050000000
NUMBER_OF_FRAMES : 144193
NUMBER_OF_BYTES : 7077749747
_STATISTICS_WRITING_APP : mkvmerge v33.0.0 (''A Little Bit of Madness'') 64-bit
_STATISTICS_WRITING_DATE_UTC : 2019-05-11 18:38:43
_STATISTICS_TAGS : BPS DURATION NUMBER_OF_FRAMES NUMBER_OF_BYTES

Audio
ID : 1
Format : AC-3
Format/Info : Audio Coding 3
Mode extension : CM (complete main)
Format settings, Endianness : Big
Codec ID : A_AC3
Duration : 1h 40mn
Bit rate mode : Constant
Bit rate : 192 Kbps
Channel(s) : 2 channels
Channel positions : Front: L R
Sampling rate : 48.0 KHz
Bit depth : 32 bits
Compression mode : Lossy
Stream size : 138 MiB (9%)
Title : Профессиональный многоголосый | [HDRezka Studio]
Language : Russian
Default : Yes
Forced : No
DURATION : 01:40:12.832000000
NUMBER_OF_FRAMES : 187901
NUMBER_OF_BYTES : 144307968
_STATISTICS_WRITING_APP : mkvmerge v33.0.0 (''A Little Bit of Madness'') 64-bit
_STATISTICS_WRITING_DATE_UTC : 2019-05-11 18:38:43
_STATISTICS_TAGS : BPS DURATION NUMBER_OF_FRAMES NUMBER_OF_BYTES











   Похожие торренты   Торрент   Размер 
В этой теме нет новых непрочитанных сообщений. Не состарится / Never Grow Old (Иван Кэвэна) [2019, боевик, вестерн, драма, триллер, WEBDLRip] MVO

0 | 0

1.45 ГБ

В этой теме нет новых непрочитанных сообщений. Не состарится / Never Grow Old (Иван Кэвэна) [2019, боевик, вестерн, драма, триллер, WEBDLRip] MVO

0 | 0

1.35 ГБ

В этой теме нет новых непрочитанных сообщений. Джона Хекс / Jonah Hex (Джимми Хейуорд) [2010, боевик, триллер, драма, вестерн, HDRip-AVC] MVO / Фильмы HDRip

3 | 0

2.19 ГБ

В этой теме нет новых непрочитанных сообщений. Город-бомба / Bomb City (Джэми Брукс) [2017, Боевик, триллер, драма, криминал, вестерн, HDRip] MVO / Драмы

4 | 0

1.46 ГБ

В этой теме нет новых непрочитанных сообщений. Город-бомба / Bomb City (Джэми Брукс) [2017, боевик, триллер, драма, криминал, вестерн, WEBDLRip] MVO

8 | 0

1.37 ГБ

В этой теме нет новых непрочитанных сообщений. Снегоуборщик / Cold Pursuit (Ханс Петтер Муланд) [2019, боевик, триллер, драма, криминал, HDRip] DUB

39 | 0

1.46 ГБ

В этой теме нет новых непрочитанных сообщений. Добро пожаловать в Акапулько / Welcome to Acapulco ( Гильермо Иван) [2019, боевик, триллер, комедия, WEBDLRip] MVO

42 | 4

1.37 ГБ




Вы не можете начинать темы
Вы не можете отвечать на сообщения
Вы не можете редактировать свои сообщения
Вы не можете удалять свои сообщения
Вы не можете добавлять вложения

Перейти:  
Для Мосгорсуда, Роскомнадзора и рекламодателей: mosgorsud-torrent[собачка]yandex.ru
cron
Регистрация  Вход
ppkBB3cker v.2 © 2008-2014 @ PPK
[ Time : 0.027s | 16 Queries | GZIP : Off ]

cron