img image001 image001 image001 image001 image001 image001 image001 image001 image001 image001 image001 image001 image001 image001 image001 image001
Planets Sun Sun Sun
Статистика раздачи
Автор: mari | Размер: 14.28 ГБ | Добавлен: 23 июл 2013
Раздают: 1    Качают: 2
Скачать торрент
Скачать торрент

СообщениеДобавлено: 23 июл 2013 

#77

Название: Неуязвимая мишень
Оригинальное название: Naam yi boon sik / Invisible Target
Год выпуска: 2007
Страна: Гонконг, Китай
Студия: Guangzhou Ying Ming Media Co., Sil-Metropole Organisation, Universe Films Ltd.
Жанр: Криминальный боевик
Режиссер: Бенни Чан / Benny Chan
В ролях: Николас Це, Джейси Чан, Шон Юе, Джеки Ву, Лиза Лу, Энди Оун, Кэнди Лью, Elanne Kwong, Сэм Ли, Кен Ло
Продолжительность: 02:10:12
Перевод: Профессиональный (многоголосый закадровый)
Cубтитры: русские, английские

Описание: Во время ограбления инкассаторского броневика случайно погибает девушка, покупавшая обручальное кольцо в соседнем магазине. Ее жених, простой гонконгский полицейский, никак не может пережить смерть любимой, поэтому и соглашается отныне на самые отчаянные операции. Однажды его команда выходит на тех самых налетчиков, из-за которых и погибла его невеста. Отныне герой готов ради их поимки пойти на любые жертвы и что самое важное — таких как он еще двое…





General
Unique ID : 241614903166818241297772286799153050705 (0xB5C55673A20D2DD5B3AA8892F1E1B451)
Format : Matroska
Format version : Version 2
File size : 14.3 GiB
Duration : 2h 10mn
Overall bit rate : 15.7 Mbps
Encoded date : UTC 2012-05-27 09:25:01
Writing application : mkvmerge v5.5.0 ('Healer') built on Apr 6 2012 21:43:24
Writing library : libebml v1.2.3 + libmatroska v1.3.0

Video
ID : 1
Format : AVC
Format/Info : Advanced Video Codec
Format profile : High@L4.1
Format settings, CABAC : Yes
Format settings, ReFrames : 5 frames
Codec ID : V_MPEG4/ISO/AVC
Duration : 2h 10mn
Bit rate : 13.8 Mbps
Width : 1 920 pixels
Height : 816 pixels
Display aspect ratio : 2.35:1
Frame rate mode : Constant
Frame rate : 23.976 fps
Color space : YUV
Chroma subsampling : 4:2:0
Bit depth : 8 bits
Scan type : Progressive
Bits/(Pixel*Frame) : 0.367
Stream size : 12.3 GiB (86%)
Title : Invisible.Target.2007
Writing library : x264 core 102 r1666 d058f37
Encoding settings : cabac=1 / ref=5 / deblock=1:-3:-3 / analyse=0x3:0x113 / me=umh / subme=10 / psy=1 / psy_rd=1.05:0.10 / mixed_ref=1 / me_range=48 / chroma_me=1 / trellis=2 / 8x8dct=1 / cqm=2 / deadzone=21,11 / fast_pskip=0 / chroma_qp_offset=-2 / threads=12 / sliced_threads=0 / nr=0 / decimate=1 / interlaced=0 / constrained_intra=0 / bframes=5 / b_pyramid=2 / b_adapt=2 / b_bias=0 / direct=3 / weightb=1 / open_gop=0 / weightp=2 / keyint=250 / keyint_min=25 / scenecut=40 / intra_refresh=0 / rc_lookahead=60 / rc=2pass / mbtree=1 / bitrate=13802 / ratetol=2.0 / qcomp=0.70 / qpmin=10 / qpmax=51 / qpstep=4 / cplxblur=20.0 / qblur=0.5 / vbv_maxrate=50000 / vbv_bufsize=50000 / ip_ratio=1.40 / aq=1:1.00 / nal_hrd=none
Language : Chinese
Default : No
Forced : No

Audio #1
ID : 2
Format : AC-3
Format/Info : Audio Coding 3
Mode extension : CM (complete main)
Format settings, Endianness : Big
Codec ID : A_AC3
Duration : 2h 10mn
Bit rate mode : Constant
Bit rate : 384 Kbps
Channel(s) : 6 channels
Channel positions : Front: L C R, Side: L R, LFE
Sampling rate : 48.0 KHz
Bit depth : 16 bits
Compression mode : Lossy
Stream size : 358 MiB (2%)
Title : AC3 5.1 384 kbps MVO
Language : Russian
Default : Yes
Forced : No

Audio #2
ID : 3
Format : DTS
Format/Info : Digital Theater Systems
Mode : 16
Format settings, Endianness : Big
Codec ID : A_DTS
Duration : 2h 10mn
Bit rate mode : Constant
Bit rate : 1 510 Kbps
Channel(s) : 6 channels
Channel positions : Front: L C R, Side: L R, LFE
Sampling rate : 48.0 KHz
Bit depth : 24 bits
Compression mode : Lossy
Stream size : 1.37 GiB (10%)
Title : DTS 5.1 1536 kbps Cantonese
Language : Chinese
Default : No
Forced : No

Text #1
ID : 4
Format : UTF-8
Codec ID : S_TEXT/UTF8
Codec ID/Info : UTF-8 Plain Text
Language : Russian
Default : No
Forced : No

Text #2
ID : 5
Format : UTF-8
Codec ID : S_TEXT/UTF8
Codec ID/Info : UTF-8 Plain Text
Language : English
Default : No
Forced : No





Формат: MKV
Качество: BDRip 1080p (CHD)
Видео: MPEG4 Video (H264), 1920х816, 23.976 fps, 13802 kbps
Аудио #1: Русский Dolby AC3, 48000Hz, 6ch, 384 kbps
Аудио #2: Китайский (кантонский) DTS, 48000Hz, 6ch, 1536 kbps



   Похожие торренты   Торрент   Размер 
В этой теме нет новых непрочитанных сообщений. Неуязвимая мишень / Невидимая мишень / Naam yi boon sik / Invisible Target (2007) BDRip от Rulya74

24 | 21

2.18 ГБ

В этой теме нет новых непрочитанных сообщений. Неуязвимая мишень / Невидимая мишень / Naam yi boon sik / Invisible Target (2007) BDRip-AVC от MediaClub | P, A

144 | 16

4.52 ГБ

В этой теме нет новых непрочитанных сообщений. Трудная мишень / Тяжелая мишень / Hard Target (1993) BDRip от bittracker | D, P, A

136 | 17

1.35 ГБ

В этой теме нет новых непрочитанных сообщений. Трудная мишень 2 / Hard Target 2 (2016) BDRip 1080p от HDClub | Лицензия

82 | 29

17.69 ГБ

В этой теме нет новых непрочитанных сообщений. Трудная мишень 2 / Hard Target 2 (2016) BDRip 1080p от ExKinoRay | Лицензия

466 | 143

11.16 ГБ

В этой теме нет новых непрочитанных сообщений. Трудная мишень / Hard Target (1993) BDRip-HEVC 1080p | P, A | Extended Cut

28 | 8

5.09 ГБ

В этой теме нет новых непрочитанных сообщений. Трудная мишень 2 / Hard Target 2 (2016) BDRemux 1080p от ExKinoRay | Лицензия

74 | 45

28.48 ГБ




Вы не можете начинать темы
Вы не можете отвечать на сообщения
Вы не можете редактировать свои сообщения
Вы не можете удалять свои сообщения
Вы не можете добавлять вложения

Перейти:  
Для Мосгорсуда, Роскомнадзора и рекламодателей: mosgorsud-torrent[собачка]yandex.ru
 Вход
ppkBB3cker v.2 © 2008-2014 @ PPK
[ Time : 0.019s | 16 Queries | GZIP : Off ]

Торрент трекер RS-torrent.com
cron