img image001 image001 image001 image001 image001 image001 image001 image001 image001 image001 image001 image001 image001 image001 image001 image001
Planets Sun Sun Sun
Статистика раздачи
Автор: mari | Размер: 1.05 ГБ | Добавлен: 25 июл 2013
Раздают: 2    Качают: 11
Скачать торрент
Скачать торрент

СообщениеДобавлено: 25 июл 2013 

#77

Выпущено: ПЦ Мастерская, Россия
Год выхода: 2009
Жанр: Документальный / Познавательный
Продолжительность: 00:51:31
Перевод: Оригинал
Режиссер: Юлия Рябкова
В ролях: Анатолий Волков (диетолог), Алексей Ковальков (врач-диетолог), Татьяна Ефимова (главный редактор журнала "Здоровье"), Ольга Григорян (ведущий научный сотрудник Клиники НИИ питания РАМН), Вера Ревякина (профессор, доктор мед. наук, детский аллерголог-иммунолог), Валентина Золотухина (заведующая производством Клиники НИИ питания РАМН), Юнна Попова (врач высшей категории, кандидат медицинских наук Клиники НИИ питания РАМН), Юлия Чехонина (врач-гастроэнтеролог Клиники НИИ питания РАМН), Олег Гладышев (кандидат медицинских наук, врач-психотерапевт) и др.



Документальный фильм "Что съесть, чтобы похудеть" развеивает слухи о еде, и проливает свет на продуктовые тайны. Из каких составляющих складывается здоровое питание? Как оно защищает от всевозможных недугов? Действительно ли можно изменить жизнь, изменив отношение к такой простой вещи, как еда? Опираясь на последние научные разработки в области биологии и медицины, авторы фильма расскажут, КАК нужно есть, чтобы сохранить молодость, интерес к жизни и здоровый блеск в глазах. А так же ЧЕМ нужно питаться, чтобы избавится от проблемной кожи, слоящихся ногтей и даже плохого настроения.



Формат: MPEG
Качество: SatRemux
Видео: MPEG2 Video 768x576 (4:3) 25.00fps 2911Kbps
Звук: MPEG Audio 48000Hz stereo 192Kbps
General
Complete name : D:CinemaChto.est.chtobi.pohudet.2009.SatRemux.mpg
Format : MPEG-PS
File size : 1.05 GiB
Duration : 51mn 31s
Overall bit rate : 2 911 Kbps
Writing library : encoded by TMPGEnc MPEG Editor 3 Version 3.0.7.81

Video
ID : 224 (0xE0)
Format : MPEG Video
Format version : Version 2
Format profile : Main@Main
Format settings, Matrix : Default
Duration : 51mn 31s
Bit rate mode : Variable
Bit rate : 2 603 Kbps
Nominal bit rate : 15.0 Mbps
Width : 704 pixels
Height : 576 pixels
Display aspect ratio : 4:3
Frame rate : 25.000 fps
Standard : PAL
Colorimetry : 4:2:0
Scan type : Interlaced
Scan order : Top Field First
Bits/(Pixel*Frame) : 0.257
Stream size : 959 MiB (89%)
Writing library : TMPGEnc MPEG Editor

Audio
ID : 192 (0xC0)
Format : MPEG Audio
Format version : Version 1
Format profile : Layer 2
Duration : 51mn 30s
Bit rate mode : Constant
Bit rate : 192 Kbps
Channel(s) : 2 channels
Sampling rate : 48.0 KHz
Resolution : 16 bits
Stream size : 70.7 MiB (7%)



   Похожие торренты   Торрент   Размер 
В этой теме нет новых непрочитанных сообщений. Теория заговора. Съесть нельзя выбросить [27.08] (2016) HDTVRip от GeneralFilm

63 | 3

550.61 МБ

В этой теме нет новых непрочитанных сообщений. Теория заговора. Съесть нельзя выбросить (Эфир 27.08) (2016) HDTV 1080i от GeneralFilm

26 | 3

2.29 ГБ

В этой теме нет новых непрочитанных сообщений. Не худо бы похудеть / Mince alors! (2012) BDRip 1080p от CINEMANIA | P, L1

19 | 2

7.93 ГБ

В этой теме нет новых непрочитанных сообщений. Не худо бы похудеть / Mince alors! (2012) BDRip 720p от CINEMANIA | P, L1

96 | 11

4.63 ГБ

В этой теме нет новых непрочитанных сообщений. Не худо бы похудеть / Черт возьми! / Особа крупных размеров / Mince alors! (2012) HDRip | P

303 | 18

1.46 ГБ

В этой теме нет новых непрочитанных сообщений. Пусть говорят. Самый большой мальчик России хочет похудеть (Эфир от 03.08.2017) [2017, ТВ-шоу, SATRip]

20 | 0

713.05 МБ

В этой теме нет новых непрочитанных сообщений. Вести 24 [22:00.ч] [31.08] (2013) SATRemux

0 | 1

597.45 МБ




Вы не можете начинать темы
Вы не можете отвечать на сообщения
Вы не можете редактировать свои сообщения
Вы не можете удалять свои сообщения
Вы не можете добавлять вложения

Перейти:  
Для Мосгорсуда, Роскомнадзора и рекламодателей: mosgorsud-torrent[собачка]yandex.ru
 Вход
ppkBB3cker v.2 © 2008-2014 @ PPK
[ Time : 0.023s | 17 Queries | GZIP : Off ]

Торрент трекер RS-torrent.com
cron