img image001 image001 image001 image001 image001 image001 image001 image001 image001 image001 image001 image001 image001 image001 image001 image001
Planets Sun Sun Sun
Статистика раздачи
Автор: mari | Размер: 986.88 МБ | Добавлен: 25 июл 2013
Раздают: 0    Качают: 11
Скачать торрент
Скачать торрент

СообщениеДобавлено: 25 июл 2013 

#77

Год выпуска: 2006
Страна: США
Жанр: Документальный
Перевод: Отсутствует
Продолжительность: 00:26:46

Режиссер: Том Ридерер / Tom Riederer

В ролях: Группа альпинистов

Описание: В этом стереофильме вы увидите попытку покорения вершины самой высокой горы Северной Америки. Гора Денали, также известная как Мак-Кинли, имеет высоту 20320 футов и является одной из семи высочайших вершин мира.
Фильм содержит множество технических подробностей о снаряжении альпинистов и технике восхождения. Он будет интересен не только любителям стереокино, а также специалистам в области скалолазания.

Качество: DVDRip
Формат: AVI
Видео кодек: XviD
Аудио кодек: MP3
Видео: Xvid, 720x480, 29.97fps, 3636 Kbps
Аудио: PCM, 48000Hz, stereo, 1536kbps

Доп. информация: Это стереоскопическая версия фильма, 3D, стерео, объёмная, смотреть в очках со светофильтрами "Красный" - "Сине-зелёный(Cyan)"
















MediaInfo
General
Format: AVI
Format/Info: Audio Video Interleave
File size: 987 MiB
Duration: 26mn 46s
Overall bit rate: 5 152 Kbps
Writing application: VirtualDubMod 1.5.10.2 (build 2540/release)
Writing library: VirtualDubMod build 2540/release

Video
ID: 0
Format: MPEG-4 Visual
Format profile: Advanced Simple@L5
Format settings, BVOP: Yes
Format settings, QPel: No
Format settings, GMC: No warppoints
Format settings, Matrix: Default (H.263)
Muxing mode: Packed bitstream
Codec ID: XVID
Codec ID/Hint: XviD
Duration: 26mn 46s
Bit rate: 3 636 Kbps
Width: 720 pixels
Height: 480 pixels
Display aspect ratio: 1.500
Frame rate: 29.970 fps
Standard: NTSC
Resolution: 8 bits
Colorimetry: 4:2:0
Scan type: Progressive
Bits/(Pixel*Frame): 0.351
Stream size: 696 MiB (71%)
Writing library: XviD 1.2.1 (UTC 2008-12-04)

Audio
Format: PCM
Format settings, Endianness: Little
Format settings, Sign: Unsigned
Codec ID: 1
Codec ID/Hint: Microsoft
Duration: 26mn 13s
Bit rate mode: Constant
Bit rate: 1 536 Kbps
Channel(s): 2 channels
Sampling rate: 48.0 KHz
Resolution: 16 bits
Stream size: 288 MiB (29%)
Interleave, duration: 34 ms (1.02 video frame)
Interleave, preload duration: 500 ms

Другие раздачи в формате 3D-video: http://rutor.org/search/0/0/000/0/3D-video



   Похожие торренты   Торрент   Размер 
В этой теме нет новых непрочитанных сообщений. Меч короля Артура / King Arthur: Legend of the Sword (2017) BDRip 1080р | 3D-Video | Анаглиф | D

62 | 28

7.7 ГБ

В этой теме нет новых непрочитанных сообщений. Вершина озера / Top of the Lake [S02] (2017) WEB-DLRip | Amedia

71 | 69

4.46 ГБ

В этой теме нет новых непрочитанных сообщений. Вершина озера / Top of the Lake [S01] (2013) HDRip от Generalfilm | КПК | Amedia

2 | 0

1.28 ГБ

В этой теме нет новых непрочитанных сообщений. Вершина озера / Top of the Lake [S02] (2017) WEBRip от Generalfilm | КПК | Amedia

20 | 12

1.29 ГБ

В этой теме нет новых непрочитанных сообщений. Эверест — вершина богов / Everesuto: Kamigami no itadaki (2016) HDRip | L

119 | 0

1.37 ГБ

В этой теме нет новых непрочитанных сообщений. Вершина озера / Top of the Lake [02x01-05 из 06] (2017) WEBRip 1080p | Amedia

12 | 10

10.39 ГБ

В этой теме нет новых непрочитанных сообщений. Иван Ребров - Вершина большой карьеры (1996) MP3 от BestSound ExKinoRay

43 | 10

139.87 МБ




Вы не можете начинать темы
Вы не можете отвечать на сообщения
Вы не можете редактировать свои сообщения
Вы не можете удалять свои сообщения
Вы не можете добавлять вложения

Перейти:  
Для Мосгорсуда, Роскомнадзора и рекламодателей: mosgorsud-torrent[собачка]yandex.ru
 Вход
ppkBB3cker v.2 © 2008-2014 @ PPK
[ Time : 0.885s | 15 Queries | GZIP : Off ]

Торрент трекер RS-torrent.com
cron