img image001 image001 image001 image001 image001 image001 image001 image001 image001 image001 image001 image001 image001 image001 image001 image001
Planets Sun Sun Sun
Статистика раздачи
Автор: mari | Размер: 15.24 ГБ | Добавлен: 05 дек 2018
Раздают: 0    Качают: 0
Скачать торрент
Скачать торрент

СообщениеДобавлено: 05 дек 2018 

Настоящие монстры / Aaahh!!! Real Monsters

Перевод: Профессиональный (полное дублирование) [Metromedia International], cубтитры: отсутствуют
Формат: DVDRip, AVI, XviD, AC3
Страна: США
Режиссер: Габор Кзупо и Питер Гаффни
Жанр: мультфильм, ужасы, комедия, семейный
Продолжительность: 52 x ~ 00:24:00
Год выпуска: 1994-1997

В ролях: Чарльз Адлер, Кристин Кавано, Грегг Бергер, Дэвид Экклс, Andy Houts, Кэт Суси, Билл Фагербакк, Лорен Лестер, Лейси Чэберт, Майкл Дорн

Описание: Трое юных симпатичных монстриков, Айкис, Облина и Крумм учатся искусству пугать людей в Академии монстров под руководством строгого директора Грубля. И хотя они имеют страшный вид, живут на свалке и питаются отбросами, но их жизнь и отношения между ними почти не отличаются от жизни обычных школьников — людей.



Видео: 640x480 (1.33:1), 23.976 fps, XviD build 73 ~1379 kbps avg, 0.19 bit/pixel
Аудио: 48 kHz, AC3 Dolby Digital, 2/0 (L,R) ch, ~192.00 kbps avg Профессиональный (полное дублирование) [Metromedia International]
Аудио: 48 kHz, AC3 Dolby Digital, 2/0 (L,R) ch, ~192.00 kbps avg Оригинал

Роли дублировали:
Дмитрий Филимонов, Татьяна Шагалова, Борис Быстров, Никита Прозоровский

Общее
Полное имя : ...\Настоящие монстры\Настоящие монстры (1 сезон)\(1x01) The Switching Hour.avi
Формат : AVI
Формат/Информация : Audio Video Interleave
Размер файла : 300 Мбайт
Продолжительность : 23 м.
Общий поток : 1778 Кбит/сек
Программа кодирования : VirtualDubMod 1.5.10.3 | www.virtualdub-fr.org || (build 2550/release)
Библиотека кодирования : VirtualDubMod build 2550/release

Видео
Идентификатор : 0
Формат : MPEG-4 Visual
Профиль формата : Advanced Simple@L5
Параметр BVOP формата : 2
Параметр QPel формата : Нет
Параметр GMC формата : Без точки перехода
Параметр матрицы формата : Default (MPEG)
Идентификатор кодека : XVID
Идентификатор кодека/Подсказка : XviD
Продолжительность : 23 м.
Битрейт : 1380 Кбит/сек
Ширина : 640 пикселей
Высота : 480 пикселей
Соотношение сторон : 4:3
Частота кадров : 23,976 кадра/сек
Цветовое пространство : YUV
Субдискретизация насыщенности : 4:2:0
Битовая глубина : 8 бит
Тип развёртки : Прогрессивная
Метод сжатия : С потерями
Бит/(Пиксели*Кадры) : 0.187
Размер потока : 233 Мбайт (78%)
Библиотека кодирования : XviD 73

Аудио #1
Идентификатор : 1
Формат : AC-3
Формат/Информация : Audio Coding 3
Расширение режима : CM (complete main)
Параметр Endianness формата : Big
Идентификатор кодека : 2000
Продолжительность : 23 м.
Вид битрейта : Постоянный
Битрейт : 192 Кбит/сек
Каналы : 2 канала
Расположение каналов : Front: L R
Частота : 48,0 КГц
Битовая глубина : 16 бит
Метод сжатия : С потерями
Размер потока : 32,4 Мбайт (11%)
Выравнивание : Разделение по промежуткам
Продолжительность промежутка : 42 мс. (1,00 видеокадр)
Время предзагрузки промежутка : 500 мс.

Аудио #2
Идентификатор : 2
Формат : AC-3
Формат/Информация : Audio Coding 3
Расширение режима : CM (complete main)
Параметр Endianness формата : Big
Идентификатор кодека : 2000
Продолжительность : 23 м.
Вид битрейта : Постоянный
Битрейт : 192 Кбит/сек
Каналы : 2 канала
Расположение каналов : Front: L R
Частота : 48,0 КГц
Битовая глубина : 16 бит
Метод сжатия : С потерями
Размер потока : 32,4 Мбайт (11%)
Выравнивание : Разделение по промежуткам
Продолжительность промежутка : 42 мс. (1,00 видеокадр)
Время предзагрузки промежутка : 500 мс.








   Похожие торренты   Торрент   Размер 
В этой теме нет новых непрочитанных сообщений. ААА!!! Настоящие монстры / Aaahh!!! Real Monsters [2 сезон: 1-13 серии из 13] (Джим Даффи, Джефф МакГрат) [1995, ужасы, комедия, семейный, мультсериал, DVDRip] DUB

0 | 4

3.81 ГБ

В этой теме нет новых непрочитанных сообщений. Настоящие монстры / Aaahh!!! Real Monsters (1994-1997) DVDRip

56 | 22

15.24 ГБ

В этой теме нет новых непрочитанных сообщений. Мы – монстры / Happy Family (Хольгер Таппе) [2017, мультфильм, ужасы, комедия, семейный, WEB-DLRip] DUB [iTunes]

179 | 3

1.37 ГБ

В этой теме нет новых непрочитанных сообщений. Мы – монстры / Happy Family (Хольгер Таппе) [2017, мультфильм, ужасы, комедия, семейный, WEB-DL 1080p] 2xDUB (rus,ukr) [iTunes] / Мультфильмы (HD/BD Video)

36 | 0

3.42 ГБ

В этой теме нет новых непрочитанных сообщений. Мы – монстры / Happy Family (Хольгер Таппе) [2017, мультфильм, ужасы, комедия, семейный, WEB-DL 720p] 2xDUB (rus,ukr) [iTunes] / Мультфильмы (HD/BD Video)

8 | 0

2.96 ГБ

В этой теме нет новых непрочитанных сообщений. Утиные истории (1 сезон, 01-04 серии из 23) / DuckTale [IdeaFilm] (Дана Террас) [2017, Мультфильм, комедия, приключения, семейный, WEB-DL 1080p, P]

31 | 9

3.59 ГБ

В этой теме нет новых непрочитанных сообщений. Симпсоны (29 сезон, 1-11 серии из 22) / The Simpsons (Марк Керклэнд, Стивен Дин Мур, Джим Рирдон) [2017, мультфильм, комедия, семейный, WEB-DL 720p] MVO

3 | 4

8.22 ГБ




Вы не можете начинать темы
Вы не можете отвечать на сообщения
Вы не можете редактировать свои сообщения
Вы не можете удалять свои сообщения
Вы не можете добавлять вложения

Перейти:  
Для Мосгорсуда, Роскомнадзора и рекламодателей: mosgorsud-torrent[собачка]yandex.ru
 Вход
ppkBB3cker v.2 © 2008-2014 @ PPK
[ Time : 0.019s | 18 Queries | GZIP : Off ]

Торрент трекер RS-torrent.com
cron